Elementary S06E06

Posted By: Tavaz
720p (HD) / HDTV IMDb
Elementary S06E06

Elementary S06E06
HDTV | MKV | 1280x720 | Spanish | H264 @ 1941 kbps | MPEG Audio @ 192 kbps | 40 min 27 s | 618 MiB
Genre: Crime, Drama, Mystery

A modern-day drama about a crime-solving duo that cracks the NYPD's most impossible cases. Following his fall from grace in London and a stint in rehab, eccentric Sherlock escapes to Manhattan where his wealthy father forces him to live with his worst nightmare - a sober companion, Dr. Watson.

elementary.s06e06.spanish.720p.hdtv.x264-fcc.sample.mkv (13.7 MB)
elementary.s06e06.spanish.720p.hdtv.x264-fcc.mkv (617.9 MB)



General
Unique ID : 108533290044588124573160235709132990289 (0x51A6C056E625D34115A647B0F7886751)
Complete name : ./elementary.s06e06.spanish.720p.hdtv.x264-fcc.mkv
Format : Matroska
Format version : Version 4 / Version 2
File size : 618 MiB
Duration : 40 min 27 s
Overall bit rate : 2 135 kb/s
Movie name : elementary.s06e06.720p.fcc
Encoded date : UTC 2018-06-12 16:25:44
Writing application : mkvmerge v19.0.0 ('Brave Captain') 64-bit
Writing library : libebml v1.3.5 + libmatroska v1.4.8

Video
ID : 1
Format : AVC
Format/Info : Advanced Video Codec
Format profile : High@L4.1
Format settings : CABAC / 5 Ref Frames
Format settings, CABAC : Yes
Format settings, RefFrames : 5 frames
Codec ID : V_MPEG4/ISO/AVC
Duration : 40 min 27 s
Bit rate : 1 941 kb/s
Width : 1 280 pixels
Height : 720 pixels
Display aspect ratio : 16:9
Frame rate mode : Constant
Frame rate : 25.000 FPS
Color space : YUV
Chroma subsampling : 4:2:0
Bit depth : 8 bits
Scan type : Progressive
Bits/(Pixel*Frame) : 0.084
Stream size : 562 MiB (91%)
Title : FCC 4ever
Writing library : x264 core 155 r2901 7d0ff22
Encoding settings : opencl=1 / cabac=1 / ref=5 / deblock=1:-3:-3 / analyse=0x3:0x113 / me=hex / subme=8 / psy=1 / psy_rd=1.00:0.00 / mixed_ref=1 / me_range=16 / chroma_me=1 / trellis=2 / 8x8dct=1 / cqm=0 / deadzone=21,11 / fast_pskip=1 / chroma_qp_offset=-2 / threads=18 / lookahead_threads=3 / sliced_threads=0 / nr=0 / decimate=1 / interlaced=0 / bluray_compat=0 / constrained_intra=0 / bframes=3 / b_pyramid=2 / b_adapt=1 / b_bias=0 / direct=3 / weightb=1 / open_gop=0 / weightp=2 / keyint=250 / keyint_min=25 / scenecut=40 / intra_refresh=0 / rc_lookahead=50 / rc=crf / mbtree=1 / crf=18.0 / qcomp=0.60 / qpmin=0 / qpmax=69 / qpstep=4 / ip_ratio=1.40 / aq=1:1.00
Language : Spanish
Default : Yes
Forced : No

Audio
ID : 2
Format : MPEG Audio
Format version : Version 1
Format profile : Layer 2
Codec ID : A_MPEG/L2
Codec ID/Hint : MP2
Duration : 40 min 27 s
Bit rate mode : Constant
Bit rate : 192 kb/s
Channel(s) : 2 channels
Sampling rate : 48.0 kHz
Frame rate : 41.667 FPS (1152 SPF)
Compression mode : Lossy
Stream size : 55.6 MiB (9%)
Title : FCC 4ever
Language : Spanish
Default : Yes
Forced : No





Elementary S06E06


Elementary S06E06


Elementary S06E06


Elementary S06E06


Elementary S06E06

All episodes