Featured TV Shows


Genius S01E08

Posted By: Tavaz
SD / WEBRip IMDb
Genius S01E08

Genius S01E08
WEBRip | MKV | 640x480 | English | H264 @ 1350 kbps | E-AC-3 @ 128 kbps | 21 min 0 s | 222 MiB
Subtitles: English
Genre: Drama

Anthology series about famous geniuses with the first season charting how Albert Einstein unlocked the mysteries of the atom and the universe, and the second exploring the passionate nature and relentless creative drive of Pablo Picasso.

9dafd1098eb84148baa221192acd2cf2.mkv (221.9 MB)



General
Unique ID : 172874940234136249983911086621802099354 (0x820E809D7D74DF6F7267C2B276BBF29A)
Complete name : ./9dafd1098eb84148baa221192acd2cf2.mkv
Format : Matroska
Format version : Version 4 / Version 2
File size : 222 MiB
Duration : 21 min 0 s
Overall bit rate mode : Variable
Overall bit rate : 1 477 kb/s
Encoded date : UTC 2018-12-19 04:09:51
Writing application : mkvmerge v29.0.0 ('Like It Or Not') 64-bit
Writing library : libebml v1.3.6 + libmatroska v1.4.9

Video
ID : 1
Format : AVC
Format/Info : Advanced Video Codec
Format profile : Baseline@L3
Format settings : 3 Ref Frames
Format settings, CABAC : No
Format settings, RefFrames : 3 frames
Format settings, GOP : M=1, N=60
Codec ID : V_MPEG4/ISO/AVC
Duration : 20 min 59 s
Bit rate mode : Variable
Bit rate : 1 350 kb/s
Maximum bit rate : 2 025 kb/s
Width : 640 pixels
Height : 480 pixels
Display aspect ratio : 16:9
Frame rate mode : Constant
Frame rate : 29.970 (30000/1001) FPS
Color space : YUV
Chroma subsampling : 4:2:0
Bit depth : 8 bits
Scan type : Progressive
Bits/(Pixel*Frame) : 0.147
Stream size : 202 MiB (91%)
Writing library : x264 core 148 r2715 7e75228
Encoding settings : cabac=0 / ref=3 / deblock=1:0:0 / analyse=0x1:0x111 / me=umh / subme=9 / psy=1 / psy_rd=1.00:0.00 / mixed_ref=1 / me_range=24 / chroma_me=1 / trellis=1 / 8x8dct=0 / cqm=0 / deadzone=21,11 / fast_pskip=1 / chroma_qp_offset=-2 / threads=6 / lookahead_threads=1 / sliced_threads=0 / nr=0 / decimate=1 / interlaced=0 / bluray_compat=0 / stitchable=1 / constrained_intra=0 / bframes=0 / weightp=0 / keyint=60 / keyint_min=31 / scenecut=0 / intra_refresh=0 / rc_lookahead=60 / rc=2pass / mbtree=1 / bitrate=1350 / ratetol=1.0 / qcomp=0.50 / qpmin=8 / qpmax=51 / qpstep=4 / cplxblur=20.0 / qblur=0.5 / vbv_maxrate=2025 / vbv_bufsize=2700 / nal_hrd=vbr / filler=0 / ip_ratio=1.40 / aq=1:1.00
Language : English
Default : Yes
Forced : No

Audio
ID : 2
Format : E-AC-3
Format/Info : Enhanced Audio Coding 3
Format settings, Endianness : Big
Codec ID : A_EAC3
Duration : 21 min 0 s
Bit rate mode : Constant
Bit rate : 128 kb/s
Channel(s) : 2 channels
Channel positions : Front: L R
Sampling rate : 48.0 kHz
Frame rate : 187.500 FPS (256 SPF)
Compression mode : Lossy
Stream size : 19.2 MiB (9%)
Title : English [Original]
Language : English
Service kind : Complete Main
Default : Yes
Forced : No

Text
ID : 3
Format : UTF-8
Codec ID : S_TEXT/UTF8
Codec ID/Info : UTF-8 Plain Text
Duration : 20 min 54 s
Bit rate : 113 b/s
Count of elements : 564
Stream size : 17.4 KiB (0%)
Title : English
Language : English
Default : No
Forced : No





Genius S01E08


Genius S01E08


Genius S01E08


Genius S01E08


Genius S01E08

All episodes