Featured TV Shows


Genius S01E13

Posted By: Tavaz
Genius S01E13

Genius S01E13

Anthology series about famous geniuses with the first season charting how Albert Einstein unlocked the mysteries of the atom and the universe, and the second exploring the passionate nature and relentless creative drive of Pablo Picasso.

dd90ec375db045439a90dbfe54dcc769.avi (371.4 MB)



General
Complete name : ./dd90ec375db045439a90dbfe54dcc769.avi
Format : AVI
Format/Info : Audio Video Interleave
File size : 371 MiB
Duration : 21 min 0 s
Overall bit rate : 2 473 kb/s
Writing application : Lavf57.81.100

Video
ID : 0
Format : xvid
Codec ID : xvid
Duration : 20 min 59 s
Bit rate : 2 331 kb/s
Width : 640 pixels
Height : 360 pixels
Display aspect ratio : 16:9
Frame rate : 29.970 (30000/1001) FPS
Scan type : Progressive
Bits/(Pixel*Frame) : 0.338
Stream size : 350 MiB (94%)

Audio
ID : 1
Format : MPEG Audio
Format version : Version 1
Format profile : Layer 3
Format settings : Joint stereo / MS Stereo
Mode : Joint stereo
Mode extension : MS Stereo
Codec ID : 55
Codec ID/Hint : MP3
Duration : 21 min 0 s
Bit rate mode : Constant
Bit rate : 128 kb/s
Channel(s) : 2 channels
Sampling rate : 48.0 kHz
Compression mode : Lossy
Stream size : 19.2 MiB (5%)
Alignment : Aligned on interleaves
Interleave, duration : 24 ms (0.72 video frame)
Interleave, preload duration : 24 ms
Title : English [Original]
Writing library : LAME3.99.5





Genius S01E13


Genius S01E13


Genius S01E13


Genius S01E13


Genius S01E13

All episodes