Featured TV Shows


Genius S01E20

Posted By: Tavaz
Genius S01E20

Genius S01E20

Anthology series about famous geniuses with the first season charting how Albert Einstein unlocked the mysteries of the atom and the universe, and the second exploring the passionate nature and relentless creative drive of Pablo Picasso.

bb0e2d4ecdb14000a0f5a9f8d688fc8b.avi (416.0 MB)



General
Complete name : ./bb0e2d4ecdb14000a0f5a9f8d688fc8b.avi
Format : AVI
Format/Info : Audio Video Interleave
File size : 416 MiB
Duration : 21 min 0 s
Overall bit rate : 2 769 kb/s
Writing application : Lavf57.81.100

Video
ID : 0
Format : xvid
Codec ID : xvid
Duration : 20 min 59 s
Bit rate : 2 628 kb/s
Width : 640 pixels
Height : 360 pixels
Display aspect ratio : 16:9
Frame rate : 29.970 (30000/1001) FPS
Scan type : Progressive
Bits/(Pixel*Frame) : 0.381
Stream size : 395 MiB (95%)

Audio
ID : 1
Format : MPEG Audio
Format version : Version 1
Format profile : Layer 3
Format settings : Joint stereo / MS Stereo
Mode : Joint stereo
Mode extension : MS Stereo
Codec ID : 55
Codec ID/Hint : MP3
Duration : 21 min 0 s
Bit rate mode : Constant
Bit rate : 128 kb/s
Channel(s) : 2 channels
Sampling rate : 48.0 kHz
Compression mode : Lossy
Stream size : 19.2 MiB (5%)
Alignment : Aligned on interleaves
Interleave, duration : 24 ms (0.72 video frame)
Interleave, preload duration : 24 ms
Title : English [Original]
Writing library : LAME3.99.5





Genius S01E20


Genius S01E20


Genius S01E20


Genius S01E20


Genius S01E20

All episodes