Featured TV Shows


Empire S04E01

Posted By: Tavaz
720p (HD) / WEB-DL IMDb
Empire S04E01

Empire S04E01
WEB-DL | MKV | 1280x720 | English | H264 @ 2568 kbps | E-AC-3 @ 640 kbps | 1 h 28 min | 1.98 GiB
Subtitles: English
Genre: Drama, Music

A powerful family drama about the head of a music empire whose three sons and ex-wife all battle for his throne.

efeb268ee4244c55bbc5539f6e714d40.mkv (2.0 GB)



General
Unique ID : 74643812621047633997578781902030861526 (0x3827E0197E8399A0B8037221820D74D6)
Complete name : ./efeb268ee4244c55bbc5539f6e714d40.mkv
Format : Matroska
Format version : Version 4 / Version 2
File size : 1.98 GiB
Duration : 1 h 28 min
Overall bit rate mode : Variable
Overall bit rate : 3 210 kb/s
Encoded date : UTC 2017-09-28 07:15:38
Writing application : mkvmerge v15.0.0 ('Duel with the Devil') 64-bit
Writing library : libebml v1.3.5 + libmatroska v1.4.5

Video
ID : 1
Format : AVC
Format/Info : Advanced Video Codec
Format profile : High@L3.1
Format settings : CABAC / 5 Ref Frames
Format settings, CABAC : Yes
Format settings, RefFrames : 5 frames
Codec ID : V_MPEG4/ISO/AVC
Duration : 1 h 28 min
Bit rate mode : Variable
Bit rate : 2 568 kb/s
Maximum bit rate : 4 500 kb/s
Width : 1 280 pixels
Height : 720 pixels
Display aspect ratio : 16:9
Frame rate mode : Constant
Frame rate : 23.976 (24000/1001) FPS
Color space : YUV
Chroma subsampling : 4:2:0
Bit depth : 8 bits
Scan type : Progressive
Bits/(Pixel*Frame) : 0.116
Stream size : 1.58 GiB (80%)
Default : Yes
Forced : No
Color range : Limited
Color primaries : BT.709
Transfer characteristics : BT.709
Matrix coefficients : BT.709

Audio
ID : 2
Format : E-AC-3
Format/Info : Enhanced Audio Coding 3
Format settings, Endianness : Big
Codec ID : A_EAC3
Duration : 1 h 28 min
Bit rate mode : Constant
Bit rate : 640 kb/s
Channel(s) : 6 channels
Channel positions : Front: L C R, Side: L R, LFE
Sampling rate : 48.0 kHz
Frame rate : 187.500 FPS (256 SPF)
Compression mode : Lossy
Stream size : 404 MiB (20%)
Language : English
Service kind : Complete Main
Default : Yes
Forced : No

Text
ID : 3
Format : UTF-8
Codec ID : S_TEXT/UTF8
Codec ID/Info : UTF-8 Plain Text
Duration : 1 h 28 min
Bit rate : 94 b/s
Count of elements : 2030
Stream size : 60.7 KiB (0%)
Language : English
Default : No
Forced : No





Empire S04E01


Empire S04E01


Empire S04E01


Empire S04E01


Empire S04E01

All episodes