Featured TV Shows


Empire S04E01

Posted By: Tavaz
1080p (FullHD) / WEB-DL IMDb
Empire S04E01

Empire S04E01
WEB-DL | MKV | 1920x1080 | English | H264 @ 8975 kbps | E-AC-3 @ 640 kbps | 1 h 28 min | 5.93 GiB
Subtitles: English
Genre: Drama, Music

A powerful family drama about the head of a music empire whose three sons and ex-wife all battle for his throne.

78b673d48fa14d3eac7eb006705e595f.mkv (5.9 GB)



General
Unique ID : 117489111727908974467378189738875645376 (0x58639470802ADA6F5DB4D2E9578D6DC0)
Complete name : ./78b673d48fa14d3eac7eb006705e595f.mkv
Format : Matroska
Format version : Version 4 / Version 2
File size : 5.93 GiB
Duration : 1 h 28 min
Overall bit rate mode : Variable
Overall bit rate : 9 617 kb/s
Encoded date : UTC 2017-09-28 07:19:05
Writing application : mkvmerge v15.0.0 ('Duel with the Devil') 64-bit
Writing library : libebml v1.3.5 + libmatroska v1.4.5

Video
ID : 1
Format : AVC
Format/Info : Advanced Video Codec
Format profile : High@L4
Format settings : CABAC / 4 Ref Frames
Format settings, CABAC : Yes
Format settings, RefFrames : 4 frames
Codec ID : V_MPEG4/ISO/AVC
Duration : 1 h 28 min
Bit rate mode : Variable
Bit rate : 8 975 kb/s
Maximum bit rate : 15.0 Mb/s
Width : 1 920 pixels
Height : 1 080 pixels
Display aspect ratio : 16:9
Frame rate mode : Constant
Frame rate : 23.976 (24000/1001) FPS
Color space : YUV
Chroma subsampling : 4:2:0
Bit depth : 8 bits
Scan type : Progressive
Bits/(Pixel*Frame) : 0.181
Stream size : 5.53 GiB (93%)
Default : Yes
Forced : No
Color range : Limited
Color primaries : BT.709
Transfer characteristics : BT.709
Matrix coefficients : BT.709

Audio
ID : 2
Format : E-AC-3
Format/Info : Enhanced Audio Coding 3
Format settings, Endianness : Big
Codec ID : A_EAC3
Duration : 1 h 28 min
Bit rate mode : Constant
Bit rate : 640 kb/s
Channel(s) : 6 channels
Channel positions : Front: L C R, Side: L R, LFE
Sampling rate : 48.0 kHz
Frame rate : 187.500 FPS (256 SPF)
Compression mode : Lossy
Stream size : 404 MiB (7%)
Language : English
Service kind : Complete Main
Default : Yes
Forced : No

Text
ID : 3
Format : UTF-8
Codec ID : S_TEXT/UTF8
Codec ID/Info : UTF-8 Plain Text
Duration : 1 h 28 min
Bit rate : 94 b/s
Count of elements : 2030
Stream size : 60.7 KiB (0%)
Language : English
Default : No
Forced : No





Empire S04E01


Empire S04E01


Empire S04E01


Empire S04E01


Empire S04E01

All episodes