Featured TV Shows


Empire S04E07

Posted By: Tavaz
1080p (FullHD) / WEBRip IMDb
Empire S04E07

Empire S04E07
WEBRip | MKV | 1920x1080 | H265 @ 3312 kbps | AC-3 @ 384 kbps | 42 min 43 s | 1.13 GiB
Genre: Drama, Music

A powerful family drama about the head of a music empire whose three sons and ex-wife all battle for his throne.

c0d32dca112849a9bbdf1c9912ce8ec5.mkv (1.1 GB)



General
Unique ID : 234367316971550834177325083690478182412 (0xB05180DD20590499FAB2A163C49DA00C)
Complete name : ./c0d32dca112849a9bbdf1c9912ce8ec5.mkv
Format : Matroska
Format version : Version 4 / Version 2
File size : 1.13 GiB
Duration : 42 min 43 s
Overall bit rate : 3 771 kb/s
Writing application : Lavf57.82.100
Writing library : Lavf57.82.100
ErrorDetectionType : Per level 1

Video
ID : 1
Format : HEVC
Format/Info : High Efficiency Video Coding
Format profile : Main@L4@Main
Codec ID : V_MPEGH/ISO/HEVC
Duration : 42 min 43 s
Bit rate : 3 312 kb/s
Width : 1 920 pixels
Height : 1 080 pixels
Display aspect ratio : 16:9
Frame rate mode : Constant
Frame rate : 23.976 (24000/1001) FPS
Color space : YUV
Chroma subsampling : 4:2:0
Bit depth : 8 bits
Bits/(Pixel*Frame) : 0.067
Stream size : 1 012 MiB (88%)
Default : Yes
Forced : No
Color range : Limited
Color primaries : BT.709
Transfer characteristics : BT.709
Matrix coefficients : BT.709

Audio
ID : 2
Format : AC-3
Format/Info : Audio Coding 3
Format settings, Endianness : Big
Codec ID : A_AC3
Duration : 42 min 43 s
Bit rate mode : Constant
Bit rate : 384 kb/s
Channel(s) : 6 channels
Channel positions : Front: L C R, Side: L R, LFE
Sampling rate : 48.0 kHz
Frame rate : 31.250 FPS (1536 SPF)
Bit depth : 16 bits
Compression mode : Lossy
Stream size : 117 MiB (10%)
Service kind : Complete Main
Default : Yes
Forced : No





Empire S04E07


Empire S04E07


Empire S04E07


Empire S04E07


Empire S04E07

All episodes