Featured TV Shows


Empire S04E11

Posted By: Tavaz
720p (HD) / WEB-DL IMDb
Empire S04E11

Empire S04E11
WEB-DL | MKV | 1280x720 | English | H264 @ 2312 kbps | E-AC-3 @ 640 kbps | 44 min 44 s | 945 MiB
Genre: Drama, Music

A powerful family drama about the head of a music empire whose three sons and ex-wife all battle for his throne.

bd64c836c9984c099978423679a045c9.mkv (945.2 MB)



General
Unique ID : 222840616269599664214171256939662914547 (0xA7A58AA453BDA2975DAF450C5985B3F3)
Complete name : ./bd64c836c9984c099978423679a045c9.mkv
Format : Matroska
Format version : Version 4 / Version 2
File size : 945 MiB
Duration : 44 min 44 s
Overall bit rate mode : Variable
Overall bit rate : 2 954 kb/s
Encoded date : UTC 2018-04-05 19:02:54
Writing application : mkvmerge v21.0.0 ('Tardigrades Will Inherit The Earth') 64-bit
Writing library : libebml v1.3.5 + libmatroska v1.4.8

Video
ID : 1
Format : AVC
Format/Info : Advanced Video Codec
Format profile : High@L3.1
Format settings : CABAC / 5 Ref Frames
Format settings, CABAC : Yes
Format settings, RefFrames : 5 frames
Codec ID : V_MPEG4/ISO/AVC
Duration : 44 min 44 s
Bit rate mode : Variable
Bit rate : 2 312 kb/s
Maximum bit rate : 4 500 kb/s
Width : 1 280 pixels
Height : 720 pixels
Display aspect ratio : 16:9
Frame rate mode : Constant
Frame rate : 23.976 (24000/1001) FPS
Color space : YUV
Chroma subsampling : 4:2:0
Bit depth : 8 bits
Scan type : Progressive
Bits/(Pixel*Frame) : 0.105
Stream size : 740 MiB (78%)
Default : Yes
Forced : No
Color range : Limited
Color primaries : BT.709
Transfer characteristics : BT.709
Matrix coefficients : BT.709

Audio
ID : 2
Format : E-AC-3
Format/Info : Enhanced Audio Coding 3
Format settings, Endianness : Big
Codec ID : A_EAC3
Duration : 44 min 44 s
Bit rate mode : Constant
Bit rate : 640 kb/s
Channel(s) : 6 channels
Channel positions : Front: L C R, Side: L R, LFE
Sampling rate : 48.0 kHz
Frame rate : 187.500 FPS (256 SPF)
Compression mode : Lossy
Stream size : 205 MiB (22%)
Language : English
Service kind : Complete Main
Default : Yes
Forced : No





Empire S04E11


Empire S04E11


Empire S04E11


Empire S04E11


Empire S04E11

All episodes