Featured TV Shows


Empire S04E11

Posted By: Tavaz
1080p (FullHD) / WEBRip IMDb
Empire S04E11

Empire S04E11
WEBRip | MKV | 1920x1080 | H265 @ 3332 kbps | AC-3 @ 384 kbps | 44 min 44 s | 1.18 GiB
Genre: Drama, Music

A powerful family drama about the head of a music empire whose three sons and ex-wife all battle for his throne.

d899e35771c14193afb30a24a684fa93.mkv (1.2 GB)



General
Unique ID : 26800827273628193671568793946733334404 (0x1429A6CDD1E7A8EEC73E58A46B2ACF84)
Complete name : ./d899e35771c14193afb30a24a684fa93.mkv
Format : Matroska
Format version : Version 4 / Version 2
File size : 1.18 GiB
Duration : 44 min 44 s
Overall bit rate : 3 792 kb/s
Writing application : Lavf57.82.100
Writing library : Lavf57.82.100
ErrorDetectionType : Per level 1

Video
ID : 1
Format : HEVC
Format/Info : High Efficiency Video Coding
Format profile : Main@L4@Main
Codec ID : V_MPEGH/ISO/HEVC
Duration : 44 min 43 s
Bit rate : 3 332 kb/s
Width : 1 920 pixels
Height : 1 080 pixels
Display aspect ratio : 16:9
Frame rate mode : Constant
Frame rate : 23.976 (24000/1001) FPS
Color space : YUV
Chroma subsampling : 4:2:0
Bit depth : 8 bits
Bits/(Pixel*Frame) : 0.067
Stream size : 1.04 GiB (88%)
Default : Yes
Forced : No
Color range : Limited
Color primaries : BT.709
Transfer characteristics : BT.709
Matrix coefficients : BT.709

Audio
ID : 2
Format : AC-3
Format/Info : Audio Coding 3
Format settings, Endianness : Big
Codec ID : A_AC3
Duration : 44 min 44 s
Bit rate mode : Constant
Bit rate : 384 kb/s
Channel(s) : 6 channels
Channel positions : Front: L C R, Side: L R, LFE
Sampling rate : 48.0 kHz
Frame rate : 31.250 FPS (1536 SPF)
Bit depth : 16 bits
Compression mode : Lossy
Stream size : 123 MiB (10%)
Service kind : Complete Main
Default : Yes
Forced : No





Empire S04E11


Empire S04E11


Empire S04E11


Empire S04E11


Empire S04E11

All episodes