Featured TV Shows


Empire S04E12

Posted By: Tavaz
720p (HD) / WEB-DL IMDb
Empire S04E12

Empire S04E12
WEB-DL | MKV | 1280x720 | English | H264 @ 2163 kbps | E-AC-3 @ 640 kbps | 44 min 40 s | 897 MiB
Subtitles: English
Genre: Drama, Music

A powerful family drama about the head of a music empire whose three sons and ex-wife all battle for his throne.

f1389cb84031464db67a8286144201e1.mkv (896.5 MB)



General
Unique ID : 14485321632683104890658319471671560224 (0xAE5C57EF81E6F038AD86AEE3F5CC820)
Complete name : ./f1389cb84031464db67a8286144201e1.mkv
Format : Matroska
Format version : Version 4 / Version 2
File size : 897 MiB
Duration : 44 min 40 s
Overall bit rate mode : Variable
Overall bit rate : 2 806 kb/s
Encoded date : UTC 2018-04-12 12:17:10
Writing application : mkvmerge v21.0.0 ('Tardigrades Will Inherit The Earth') 64-bit
Writing library : libebml v1.3.5 + libmatroska v1.4.8

Video
ID : 1
Format : AVC
Format/Info : Advanced Video Codec
Format profile : High@L3.1
Format settings : CABAC / 5 Ref Frames
Format settings, CABAC : Yes
Format settings, RefFrames : 5 frames
Codec ID : V_MPEG4/ISO/AVC
Duration : 44 min 40 s
Bit rate mode : Variable
Bit rate : 2 164 kb/s
Maximum bit rate : 4 500 kb/s
Width : 1 280 pixels
Height : 720 pixels
Display aspect ratio : 16:9
Frame rate mode : Constant
Frame rate : 23.976 (24000/1001) FPS
Color space : YUV
Chroma subsampling : 4:2:0
Bit depth : 8 bits
Scan type : Progressive
Bits/(Pixel*Frame) : 0.098
Stream size : 691 MiB (77%)
Default : Yes
Forced : No
Color range : Limited
Color primaries : BT.709
Transfer characteristics : BT.709
Matrix coefficients : BT.709

Audio
ID : 2
Format : E-AC-3
Format/Info : Enhanced Audio Coding 3
Format settings, Endianness : Big
Codec ID : A_EAC3
Duration : 44 min 40 s
Bit rate mode : Constant
Bit rate : 640 kb/s
Channel(s) : 6 channels
Channel positions : Front: L C R, Side: L R, LFE
Sampling rate : 48.0 kHz
Frame rate : 187.500 FPS (256 SPF)
Compression mode : Lossy
Stream size : 205 MiB (23%)
Language : English
Service kind : Complete Main
Default : Yes
Forced : No

Text
ID : 3
Format : UTF-8
Codec ID : S_TEXT/UTF8
Codec ID/Info : UTF-8 Plain Text
Duration : 44 min 37 s
Bit rate : 95 b/s
Count of elements : 943
Stream size : 31.3 KiB (0%)
Title : SDH
Language : English
Default : No
Forced : No





Empire S04E12


Empire S04E12


Empire S04E12


Empire S04E12


Empire S04E12

All episodes