Featured TV Shows


Empire S05E09

Posted By: Tavaz
1080p (FullHD) / WEB-DL IMDb
Empire S05E09

Empire S05E09
WEB-DL | MKV | 1920x1080 | English | H264 @ 9446 kbps | E-AC-3 @ 640 kbps | 44 min 46 s | 3.15 GiB
Subtitles: English
Genre: Drama, Music

A powerful family drama about the head of a music empire whose three sons and ex-wife all battle for his throne.

b866d0d4c5594af19270b6b57009d6d9.mkv (3.2 GB)



General
Unique ID : 29956591927842812086159414620517972694 (0x16896E039BCA19FD5B278ACA75123AD6)
Complete name : ./b866d0d4c5594af19270b6b57009d6d9.mkv
Format : Matroska
Format version : Version 4 / Version 2
File size : 3.15 GiB
Duration : 44 min 46 s
Overall bit rate : 10.1 Mb/s
Encoded date : UTC 2018-12-06 13:37:11
Writing application : mkvmerge v29.0.0 ('Like It Or Not') 64-bit
Writing library : libebml v1.3.6 + libmatroska v1.4.9

Video
ID : 1
Format : AVC
Format/Info : Advanced Video Codec
Format profile : High@L4
Format settings : CABAC / 4 Ref Frames
Format settings, CABAC : Yes
Format settings, RefFrames : 4 frames
Codec ID : V_MPEG4/ISO/AVC
Duration : 44 min 46 s
Bit rate : 9 447 kb/s
Width : 1 920 pixels
Height : 1 080 pixels
Display aspect ratio : 16:9
Frame rate mode : Constant
Frame rate : 23.976 (24000/1001) FPS
Color space : YUV
Chroma subsampling : 4:2:0
Bit depth : 8 bits
Scan type : Progressive
Bits/(Pixel*Frame) : 0.190
Stream size : 2.95 GiB (94%)
Default : Yes
Forced : No
Color range : Limited
Color primaries : BT.709
Transfer characteristics : BT.709
Matrix coefficients : BT.709

Audio
ID : 2
Format : E-AC-3
Format/Info : Enhanced Audio Coding 3
Format settings, Endianness : Big
Codec ID : A_EAC3
Duration : 44 min 46 s
Bit rate mode : Constant
Bit rate : 640 kb/s
Channel(s) : 6 channels
Channel positions : Front: L C R, Side: L R, LFE
Sampling rate : 48.0 kHz
Frame rate : 187.500 FPS (256 SPF)
Compression mode : Lossy
Stream size : 205 MiB (6%)
Language : English
Service kind : Complete Main
Default : Yes
Forced : No

Text
ID : 3
Format : UTF-8
Codec ID : S_TEXT/UTF8
Codec ID/Info : UTF-8 Plain Text
Duration : 44 min 43 s
Bit rate : 96 b/s
Count of elements : 946
Stream size : 31.5 KiB (0%)
Title : SDH
Language : English
Default : No
Forced : No





Empire S05E09


Empire S05E09


Empire S05E09


Empire S05E09


Empire S05E09

All episodes