Featured TV Shows


Empire S05E11

Posted By: Tavaz
SD / WEBRip IMDb
Empire S05E11

Empire S05E11
WEBRip | MKV | 992x558 | English | H264 @ 1040 kbps | AAC @ 96 kbps | 43 min 53 s | 353 MiB
Genre: Drama, Music

A powerful family drama about the head of a music empire whose three sons and ex-wife all battle for his throne.

202f84a4a256452eaeac7872e4d9dca5.mkv (353.3 MB)



General
Unique ID : 328456396307763729972051545008547215098 (0xF71A66A1DF20050833D138741CB6B6FA)
Complete name : ./202f84a4a256452eaeac7872e4d9dca5.mkv
Format : Matroska
Format version : Version 4 / Version 2
File size : 353 MiB
Duration : 43 min 53 s
Overall bit rate : 1 126 kb/s
Encoded date : UTC 2019-03-21 00:04:07
Writing application : mkvmerge v29.0.0 ('Like It Or Not') 64-bit
Writing library : libebml v1.3.6 + libmatroska v1.4.9

Video
ID : 1
Format : AVC
Format/Info : Advanced Video Codec
Format profile : Main@L3.1
Format settings : CABAC / 2 Ref Frames
Format settings, CABAC : Yes
Format settings, RefFrames : 2 frames
Codec ID : V_MPEG4/ISO/AVC
Duration : 43 min 53 s
Bit rate : 1 040 kb/s
Width : 992 pixels
Height : 558 pixels
Display aspect ratio : 16:9
Frame rate mode : Constant
Frame rate : 23.976 (24000/1001) FPS
Color space : YUV
Chroma subsampling : 4:2:0
Bit depth : 8 bits
Scan type : Progressive
Bits/(Pixel*Frame) : 0.078
Stream size : 323 MiB (91%)
Writing library : x264 core 148 r2579M 73ae2d1
Encoding settings : cabac=1 / ref=2 / deblock=1:0:0 / analyse=0x1:0x111 / me=hex / subme=2 / psy=1 / psy_rd=1.00:0.00 / mixed_ref=0 / me_range=16 / chroma_me=1 / trellis=0 / 8x8dct=0 / cqm=0 / deadzone=21,11 / fast_pskip=1 / chroma_qp_offset=0 / threads=4 / lookahead_threads=1 / sliced_threads=0 / nr=250 / decimate=1 / interlaced=0 / bluray_compat=0 / stitchable=1 / constrained_intra=0 / bframes=0 / weightp=1 / keyint=250 / keyint_min=25 / scenecut=40 / intra_refresh=0 / rc_lookahead=10 / rc=2pass / mbtree=1 / bitrate=1040 / ratetol=1.0 / qcomp=0.60 / qpmin=5 / qpmax=69 / qpstep=4 / cplxblur=20.0 / qblur=0.5 / ip_ratio=1.40 / aq=1:1.00
Default : Yes
Forced : No

Audio
ID : 2
Format : AAC
Format/Info : Advanced Audio Codec
Format profile : HE-AAC / LC
Format settings : Implicit
Codec ID : A_AAC-2
Duration : 43 min 53 s
Bit rate : 96.0 kb/s
Channel(s) : 2 channels
Channel positions : Front: L R
Sampling rate : 48.0 kHz / 24.0 kHz
Frame rate : 23.438 FPS (1024 SPF)
Compression mode : Lossy
Stream size : 29.8 MiB (8%)
Default : Yes
Forced : No





Empire S05E11


Empire S05E11


Empire S05E11


Empire S05E11


Empire S05E11

All episodes