Featured TV Shows


Empire S05E18

Posted By: Tavaz
720p (HD) / WEBRip IMDb
Empire S05E18

Empire S05E18
WEBRip | MKV | 1280x720 | English | H264 @ 3922 kbps | E-AC-3 @ 640 kbps | 43 min 53 s | 1.40 GiB
Subtitles: German, English
Genre: Drama, Music


A powerful family drama about the head of a music empire whose three sons and ex-wife all battle for his throne.

Empire.2015.S05E18.720p.WEB.H264-METCON.mkv (1.4 GB)



General
Unique ID : 57845908936723798553043941060539673602 (0x2B84B78164FDD977A9DFDC44E9496C02)
Complete name : ./Empire.2015.S05E18.720p.WEB.H264-METCON.mkv
Format : Matroska
Format version : Version 4 / Version 2
File size : 1.40 GiB
Duration : 43 min 53 s
Overall bit rate : 4 565 kb/s
Encoded date : UTC 2019-05-08 22:15:24
Writing application : mkvmerge v33.1.0 ('Primrose') 64-bit
Writing library : libebml v1.3.7 + libmatroska v1.5.0

Video
ID : 1
Format : AVC
Format/Info : Advanced Video Codec
Format profile : High@L3.1
Format settings : CABAC / 4 Ref Frames
Format settings, CABAC : Yes
Format settings, RefFrames : 4 frames
Codec ID : V_MPEG4/ISO/AVC
Duration : 43 min 53 s
Bit rate mode : Constant
Bit rate : 3 923 kb/s
Nominal bit rate : 6 000 kb/s
Width : 1 280 pixels
Height : 720 pixels
Display aspect ratio : 16:9
Frame rate mode : Constant
Frame rate : 23.976 (24000/1001) FPS
Color space : YUV
Chroma subsampling : 4:2:0
Bit depth : 8 bits
Scan type : Progressive
Bits/(Pixel*Frame) : 0.178
Stream size : 1.20 GiB (86%)
Language : English
Default : Yes
Forced : No
Color range : Limited
Color primaries : BT.709
Transfer characteristics : BT.709
Matrix coefficients : BT.709

Audio
ID : 2
Format : E-AC-3
Format/Info : Enhanced Audio Coding 3
Format settings, Endianness : Big
Codec ID : A_EAC3
Duration : 43 min 53 s
Bit rate mode : Constant
Bit rate : 640 kb/s
Channel(s) : 6 channels
Channel positions : Front: L C R, Side: L R, LFE
Sampling rate : 48.0 kHz
Frame rate : 187.500 FPS (256 SPF)
Compression mode : Lossy
Stream size : 201 MiB (14%)
Language : English
Service kind : Complete Main
Default : Yes
Forced : No

Text #1
ID : 3
Format : UTF-8
Codec ID : S_TEXT/UTF8
Codec ID/Info : UTF-8 Plain Text
Duration : 43 min 47 s
Bit rate : 69 b/s
Count of elements : 611
Stream size : 22.1 KiB (0%)
Title : Deutsch
Language : German
Default : No
Forced : No

Text #2
ID : 4
Format : UTF-8
Codec ID : S_TEXT/UTF8
Codec ID/Info : UTF-8 Plain Text
Duration : 43 min 25 s
Bit rate : 82 b/s
Count of elements : 830
Stream size : 26.1 KiB (0%)
Title : English
Language : English
Default : No
Forced : No





Empire S05E18


Empire S05E18


Empire S05E18


Empire S05E18


Empire S05E18

All episodes