Featured TV Shows


Endeavour S06E04

Posted By: Tavaz
1080p (FullHD) / WEB-DL IMDb
Endeavour S06E04

Endeavour S06E04
WEB-DL | MKV | 1920x1080 | English | H264 @ 8231 kbps | E-AC-3 @ 224 kbps | 1 h 30 min | 5.36 GiB
Genre: Crime, Drama, Mystery

The early days of a young Endeavour Morse, whose experiences as a detective constable with the Oxford City Police will ultimately shape his future.

fce9269b07934d49a8b928e41a4bc917.mkv (5.4 GB)



General
Unique ID : 266259919096605133742722414686988078601 (0xC84FCB8CD7896CF580FE36EEA06B0E09)
Complete name : ./fce9269b07934d49a8b928e41a4bc917.mkv
Format : Matroska
Format version : Version 4 / Version 2
File size : 5.36 GiB
Duration : 1 h 30 min
Overall bit rate mode : Constant
Overall bit rate : 8 457 kb/s
Encoded date : UTC 2019-03-07 06:45:59
Writing application : mkvmerge v19.0.0 ('Brave Captain') 64-bit
Writing library : libebml v1.3.5 + libmatroska v1.4.8

Video
ID : 1
Format : AVC
Format/Info : Advanced Video Codec
Format profile : High@L4
Format settings : CABAC / 4 Ref Frames
Format settings, CABAC : Yes
Format settings, RefFrames : 4 frames
Codec ID : V_MPEG4/ISO/AVC
Duration : 1 h 30 min
Bit rate mode : Constant
Bit rate : 8 231 kb/s
Nominal bit rate : 10 000 kb/s
Width : 1 920 pixels
Height : 1 080 pixels
Display aspect ratio : 16:9
Frame rate mode : Constant
Frame rate : 25.000 FPS
Color space : YUV
Chroma subsampling : 4:2:0
Bit depth : 8 bits
Scan type : Progressive
Bits/(Pixel*Frame) : 0.159
Stream size : 5.21 GiB (97%)
Default : Yes
Forced : No
Color range : Limited
Color primaries : BT.709
Transfer characteristics : BT.709
Matrix coefficients : BT.709

Audio
ID : 2
Format : E-AC-3
Format/Info : Enhanced Audio Coding 3
Format settings, Endianness : Big
Codec ID : A_EAC3
Duration : 1 h 30 min
Bit rate mode : Constant
Bit rate : 224 kb/s
Channel(s) : 2 channels
Channel positions : Front: L R
Sampling rate : 48.0 kHz
Frame rate : 187.500 FPS (256 SPF)
Compression mode : Lossy
Stream size : 145 MiB (3%)
Language : English
Service kind : Complete Main
Default : Yes
Forced : No





Endeavour S06E04


Endeavour S06E04


Endeavour S06E04


Endeavour S06E04


Endeavour S06E04

All episodes