Escape at Dannemora S01E03

Posted By: Tavaz
1080p (FullHD) / HDTV IMDb
Escape at Dannemora S01E03

Escape at Dannemora S01E03
HDTV | MKV | 1920x804 | French / English | H264 @ 6487 kbps | E-AC-3 @ 96 kbps | 56 min 53 s | 2.65 GiB
Subtitles: French
Genre: Drama

The stranger-than-fiction account of a prison break in upstate New York in the summer of 2015, which spawned a massive manhunt for two convicted murderers who were aided in their escape by a married female prison employee with whom they both became sexually entangled.

e295b8c5e791426aa09cc247d534aaa2.mkv (2.7 GB)



General
Unique ID : 45235800044716437149699942748731963696 (0x22081922BF2AD1B4F832E2AA559B7930)
Complete name : ./e295b8c5e791426aa09cc247d534aaa2.mkv
Format : Matroska
Format version : Version 4 / Version 2
File size : 2.65 GiB
Duration : 56 min 53 s
Overall bit rate : 6 682 kb/s
Encoded date : UTC 2018-12-06 19:22:13
Writing application : mkvmerge v29.0.0 ('Like It Or Not') 32-bit
Writing library : libebml v1.3.6 + libmatroska v1.4.9

Video
ID : 1
Format : AVC
Format/Info : Advanced Video Codec
Format profile : High@L4.1
Format settings : CABAC / 5 Ref Frames
Format settings, CABAC : Yes
Format settings, RefFrames : 5 frames
Codec ID : V_MPEG4/ISO/AVC
Duration : 56 min 53 s
Bit rate : 6 488 kb/s
Width : 1 920 pixels
Height : 804 pixels
Display aspect ratio : 2.40:1
Frame rate mode : Constant
Frame rate : 25.000 FPS
Color space : YUV
Chroma subsampling : 4:2:0
Bit depth : 8 bits
Scan type : Progressive
Bits/(Pixel*Frame) : 0.168
Stream size : 2.58 GiB (97%)
Title : Escape at Dannemora S01E03
Writing library : x264 core 157 r2935 545de2f
Encoding settings : opencl=1 / cabac=1 / ref=5 / deblock=1:-2:-2 / analyse=0x3:0x133 / me=umh / subme=8 / psy=1 / psy_rd=1.00:0.00 / mixed_ref=1 / me_range=24 / chroma_me=1 / trellis=2 / 8x8dct=1 / cqm=0 / deadzone=21,11 / fast_pskip=0 / chroma_qp_offset=-2 / threads=24 / lookahead_threads=4 / sliced_threads=0 / nr=0 / decimate=1 / interlaced=0 / bluray_compat=0 / constrained_intra=0 / bframes=3 / b_pyramid=2 / b_adapt=2 / b_bias=0 / direct=3 / weightb=1 / open_gop=0 / weightp=2 / keyint=250 / keyint_min=25 / scenecut=40 / intra_refresh=0 / rc_lookahead=60 / rc=crf / mbtree=1 / crf=17.0 / qcomp=0.60 / qpmin=0 / qpmax=69 / qpstep=4 / ip_ratio=1.40 / aq=1:1.00
Language : French
Default : Yes
Forced : No
Color range : Limited
Matrix coefficients : BT.709

Audio #1
ID : 2
Format : E-AC-3
Format/Info : Enhanced Audio Coding 3
Format settings, Endianness : Big
Codec ID : A_EAC3
Duration : 56 min 52 s
Bit rate mode : Constant
Bit rate : 96.0 kb/s
Channel(s) : 2 channels
Channel positions : Front: L R
Sampling rate : 48.0 kHz
Frame rate : 187.500 FPS (256 SPF)
Compression mode : Lossy
Stream size : 39.1 MiB (1%)
Title : Français E-AC3 2.0
Language : French
Service kind : Complete Main
Default : Yes
Forced : No

Audio #2
ID : 3
Format : E-AC-3
Format/Info : Enhanced Audio Coding 3
Format settings, Endianness : Big
Codec ID : A_EAC3
Duration : 56 min 52 s
Bit rate mode : Constant
Bit rate : 96.0 kb/s
Channel(s) : 2 channels
Channel positions : Front: L R
Sampling rate : 48.0 kHz
Frame rate : 187.500 FPS (256 SPF)
Compression mode : Lossy
Stream size : 39.1 MiB (1%)
Title : Anglais E-AC3 2.0
Language : English
Service kind : Complete Main
Default : No
Forced : No

Text
ID : 5
Format : UTF-8
Codec ID : S_TEXT/UTF8
Codec ID/Info : UTF-8 Plain Text
Duration : 55 min 15 s
Bit rate : 23 b/s
Count of elements : 409
Stream size : 9.71 KiB (0%)
Title : Français
Language : French
Default : No
Forced : No





Escape at Dannemora S01E03


Escape at Dannemora S01E03


Escape at Dannemora S01E03


Escape at Dannemora S01E03


Escape at Dannemora S01E03

All episodes