Index
# A B C D E F G H I J K L M N O P Q R S T U V W Y Z
Tags
Language
Tags

Featured TV Shows


Euphoria S01E02

Posted By: Tavaz
1080p (FullHD) / WEB-DL IMDb
Euphoria S01E02

Euphoria S01E02
WEB-DL | MKV | 1920x1080 | English | H264 @ 8591 kbps | E-AC-3 @ 640 kbps | 1 h 1 min | 3.99 GiB
Subtitles: English
Genre: Drama


Euphoria portrays a sexy, troubling, and bold profile of the teens of the nineties, within a raging drama going on behind teenagers' closed doors.

001a91d3658f4c0dadd55a6ad1ce4464.mkv (4.0 GB)



General
Unique ID : 337919682467780393642024789150519264522 (0xFE38F6A9A80F314D1C1C5F0CAF64050A)
Complete name : ./001a91d3658f4c0dadd55a6ad1ce4464.mkv
Format : Matroska
Format version : Version 4 / Version 2
File size : 3.99 GiB
Duration : 1 h 1 min
Overall bit rate : 9 234 kb/s
Encoded date : UTC 2019-06-24 05:12:43
Writing application : mkvmerge v35.0.0 ('All The Love In The World') 64-bit
Writing library : libebml v1.3.9 + libmatroska v1.5.2

Video
ID : 1
Format : AVC
Format/Info : Advanced Video Codec
Format profile : High@L4
Format settings : CABAC / 4 Ref Frames
Format settings, CABAC : Yes
Format settings, RefFrames : 4 frames
Codec ID : V_MPEG4/ISO/AVC
Duration : 1 h 1 min
Bit rate mode : Constant
Bit rate : 8 592 kb/s
Nominal bit rate : 10 000 kb/s
Width : 1 920 pixels
Height : 1 080 pixels
Display aspect ratio : 16:9
Frame rate mode : Constant
Frame rate : 23.976 (24000/1001) FPS
Color space : YUV
Chroma subsampling : 4:2:0
Bit depth : 8 bits
Scan type : Progressive
Bits/(Pixel*Frame) : 0.173
Stream size : 3.71 GiB (93%)
Default : Yes
Forced : No
Color range : Limited
Color primaries : BT.709
Transfer characteristics : BT.709
Matrix coefficients : BT.709

Audio
ID : 2
Format : E-AC-3
Format/Info : Enhanced Audio Coding 3
Format settings, Endianness : Big
Codec ID : A_EAC3
Duration : 1 h 1 min
Bit rate mode : Constant
Bit rate : 640 kb/s
Channel(s) : 6 channels
Channel positions : Front: L C R, Side: L R, LFE
Sampling rate : 48.0 kHz
Frame rate : 187.500 FPS (256 SPF)
Compression mode : Lossy
Delay relative to video : 6 ms
Stream size : 283 MiB (7%)
Language : English
Service kind : Complete Main
Default : Yes
Forced : No

Text #1
ID : 3
Format : UTF-8
Codec ID : S_TEXT/UTF8
Codec ID/Info : UTF-8 Plain Text
Duration : 1 h 1 min
Bit rate : 68 b/s
Count of elements : 947
Stream size : 31.1 KiB (0%)
Title : English
Language : English
Default : No
Forced : No

Text #2
ID : 4
Format : UTF-8
Codec ID : S_TEXT/UTF8
Codec ID/Info : UTF-8 Plain Text
Duration : 1 h 1 min
Bit rate : 69 b/s
Count of elements : 972
Stream size : 31.2 KiB (0%)
Title : English SDH
Language : English
Default : No
Forced : No

Menu
00:00:00.000 : en:Ratings
00:00:04.958 : en:Previously On
00:00:54.958 : en:Disclaimer
00:01:04.958 : en:Studio Logo
00:01:10.958 : en:The story of Nate Jacobs
00:09:51.958 : en:Title Sequence
00:10:07.958 : en:Drugs are cool
00:12:36.958 : en:Sex and blacking out
00:15:20.958 : en:Tell us about your summer
00:20:44.958 : en:Starting to miss the old you
00:22:07.958 : en:Drugs can take away a lot
00:27:03.958 : en:The internet takes over
00:31:49.958 : en:School spirit
00:33:10.958 : en:Young love takes many forms
00:37:18.958 : en:Ru tries to score
00:39:57.958 : en:A real conversation
00:42:45.958 : en:A new kind of drug
00:45:32.958 : en:Nate seeks revenge
00:48:30.958 : en:Big brother protects
00:51:21.958 : en:What's done is done
00:57:50.958 : en:A new identity
00:59:21.958 : en:End Credits
01:01:07.958 : en:Disclaimer
01:01:18.958 : en:Next Time
01:01:51.958 : en:Euphoria Unfiltered: Jacob Elordi





Euphoria S01E02


Euphoria S01E02


Euphoria S01E02


Euphoria S01E02


Euphoria S01E02

All episodes