Index
# A B C D E F G H I J K L M N O P Q R S T U V W Y Z
Tags
Language
Tags

Featured TV Shows


Euphoria S01E03

Posted By: Tavaz
1080p (FullHD) / WEB-DL IMDb
Euphoria S01E03

Euphoria S01E03
WEB-DL | MKV | 1920x1080 | H264 @ 7543 kbps | E-AC-3 @ 640 kbps | 58 min 27 s | 3.41 GiB
Genre: Drama


Euphoria portrays a sexy, troubling, and bold profile of the teens of the nineties, within a raging drama going on behind teenagers' closed doors.

0dd89f6207614a7085d532f5b49abeec.mkv (3.4 GB)



General
Unique ID : 286033828253400242358003325122944673603 (0xD7301C8AE07F206426BA75C4E50BA743)
Complete name : ./0dd89f6207614a7085d532f5b49abeec.mkv
Format : Matroska
Format version : Version 4 / Version 2
File size : 3.41 GiB
Duration : 58 min 27 s
Overall bit rate : 8 350 kb/s
Writing application : Lavf57.82.100
Writing library : Lavf57.82.100
ErrorDetectionType : Per level 1

Video
ID : 1
Format : AVC
Format/Info : Advanced Video Codec
Format profile : High@L4
Format settings : CABAC / 4 Ref Frames
Format settings, CABAC : Yes
Format settings, RefFrames : 4 frames
Codec ID : V_MPEG4/ISO/AVC
Duration : 58 min 27 s
Bit rate mode : Constant
Bit rate : 7 544 kb/s
Nominal bit rate : 10 000 kb/s
Width : 1 920 pixels
Height : 1 080 pixels
Display aspect ratio : 16:9
Frame rate mode : Constant
Frame rate : 23.976 (24000/1001) FPS
Color space : YUV
Chroma subsampling : 4:2:0
Bit depth : 8 bits
Scan type : Progressive
Bits/(Pixel*Frame) : 0.152
Stream size : 3.08 GiB (90%)
Default : Yes
Forced : No
Color range : Limited
Color primaries : BT.709
Transfer characteristics : BT.709
Matrix coefficients : BT.709

Audio
ID : 2
Format : E-AC-3
Format/Info : Enhanced Audio Coding 3
Format settings, Endianness : Big
Codec ID : A_EAC3
Duration : 58 min 27 s
Bit rate mode : Constant
Bit rate : 640 kb/s
Channel(s) : 6 channels
Channel positions : Front: L C R, Side: L R, LFE
Sampling rate : 48.0 kHz
Frame rate : 187.500 FPS (256 SPF)
Bit depth : 32 bits
Compression mode : Lossy
Delay relative to video : 6 ms
Stream size : 268 MiB (8%)
Service kind : Complete Main
Default : Yes
Forced : No

Text
ID : 3
Format : ASS
Codec ID : S_TEXT/ASS
Codec ID/Info : Advanced Sub Station Alpha
Duration : 58 min 26 s
Compression mode : Lossless
Writing library : Lavc57.106.101 ssa
Default : No
Forced : No

Menu





Euphoria S01E03


Euphoria S01E03


Euphoria S01E03


Euphoria S01E03


Euphoria S01E03

All episodes