Featured TV Shows


אופוריה S01E05

Posted By: Tavaz
720p (HD) / WEBRip IMDb
אופוריה S01E05

אופוריה S01E05
WEBRip | MKV | 1280x720 | Spanish | H264 @ 2102 kbps | AC-3 @ 384 kbps | 50 min 44 s | 903 MiB
Subtitles: English, Spanish
Genre: Drama


Euphoria portrays a sexy, troubling, and bold profile of the teens of the nineties, within a raging drama going on behind teenagers' closed doors.

Euphoria.US.S01E05.SPANiSH.720p.WEB.h264-4FiRE.mkv (903.1 MB)
euphoria.us.s01e05.spanish.720p.web.h264-4fire_sample.mkv (18.3 MB)



General
Unique ID : 159478368241666454494401730086948762050 (0x77FA6A9EF2DAF910993D9ADBCCE2F1C2)
Complete name : ./Euphoria.US.S01E05.SPANiSH.720p.WEB.h264-4FiRE.mkv
Format : Matroska
Format version : Version 4 / Version 2
File size : 903 MiB
Duration : 50 min 44 s
Overall bit rate mode : Variable
Overall bit rate : 2 489 kb/s
Encoded date : UTC 2019-07-16 18:40:12
Writing application : mkvmerge v35.0.0 ('All The Love In The World') 64-bit
Writing library : libebml v1.3.9 + libmatroska v1.5.2

Video
ID : 1
Format : AVC
Format/Info : Advanced Video Codec
Format profile : Main@L3.1
Format settings : CABAC / 4 Ref Frames
Format settings, CABAC : Yes
Format settings, RefFrames : 4 frames
Codec ID : V_MPEG4/ISO/AVC
Duration : 50 min 44 s
Bit rate mode : Variable
Bit rate : 2 103 kb/s
Maximum bit rate : 3 300 kb/s
Width : 1 280 pixels
Height : 720 pixels
Display aspect ratio : 16:9
Frame rate mode : Constant
Frame rate : 25.000 FPS
Color space : YUV
Chroma subsampling : 4:2:0
Bit depth : 8 bits
Scan type : Progressive
Bits/(Pixel*Frame) : 0.091
Stream size : 763 MiB (84%)
Title : Video By 4FiRE.TEAM
Language : Spanish
Default : Yes
Forced : No

Audio
ID : 2
Format : AC-3
Format/Info : Audio Coding 3
Format settings, Endianness : Big
Codec ID : A_AC3
Duration : 50 min 44 s
Bit rate mode : Constant
Bit rate : 384 kb/s
Channel(s) : 6 channels
Channel positions : Front: L C R, Side: L R, LFE
Sampling rate : 48.0 kHz
Frame rate : 31.250 FPS (1536 SPF)
Bit depth : 16 bits
Compression mode : Lossy
Stream size : 139 MiB (15%)
Title : Castellano
Language : Spanish
Service kind : Complete Main
Default : Yes
Forced : No

Text #1
ID : 3
Format : UTF-8
Codec ID : S_TEXT/UTF8
Codec ID/Info : UTF-8 Plain Text
Duration : 48 min 54 s
Bit rate : 62 b/s
Count of elements : 570
Stream size : 22.5 KiB (0%)
Title : Castellano [Completos]
Language : Spanish
Default : No
Forced : No

Text #2
ID : 4
Format : UTF-8
Codec ID : S_TEXT/UTF8
Codec ID/Info : UTF-8 Plain Text
Duration : 48 min 1 s
Bit rate : 70 b/s
Count of elements : 573
Stream size : 24.8 KiB (0%)
Title : Inglés [Completos]
Language : English
Default : No
Forced : No





אופוריה S01E05


אופוריה S01E05


אופוריה S01E05


אופוריה S01E05


אופוריה S01E05

All episodes