Featured TV Shows


Genius S01E01

Posted By: Tavaz
SD / WEB-DL IMDb
Genius S01E01

Genius S01E01
WEB-DL | MKV | 720x480 | English | H264 @ 1540 kbps | E-AC-3 @ 128 kbps | 45 min 41 s | 540 MiB
Subtitles: Polish, Portuguese, Spanish, French, English
Genre: Drama

Anthology series about famous geniuses with the first season charting how Albert Einstein unlocked the mysteries of the atom and the universe, and the second exploring the passionate nature and relentless creative drive of Pablo Picasso.

Evil.Genius.S01E01.WEB-DL.x264-iKA.mkv (540.1 MB)



General
Unique ID : 111172740847522487780557139064091209307 (0x53A3174FB1ACA70AA34A9BAA4EB66E5B)
Complete name : ./Evil.Genius.S01E01.WEB-DL.x264-iKA.mkv
Format : Matroska
Format version : Version 4 / Version 2
File size : 540 MiB
Duration : 45 min 41 s
Overall bit rate mode : Variable
Overall bit rate : 1 653 kb/s
Encoded date : UTC 2018-05-11 07:46:01
Writing application : mkvmerge v22.0.0 ('At The End Of The World') 64-bit
Writing library : libebml v1.3.5 + libmatroska v1.4.8

Video
ID : 1
Format : AVC
Format/Info : Advanced Video Codec
Format profile : Main@L3
Format settings : CABAC / 3 Ref Frames
Format settings, CABAC : Yes
Format settings, RefFrames : 3 frames
Codec ID : V_MPEG4/ISO/AVC
Duration : 45 min 41 s
Bit rate mode : Variable
Bit rate : 1 540 kb/s
Maximum bit rate : 2 310 kb/s
Width : 720 pixels
Height : 480 pixels
Display aspect ratio : 16:9
Frame rate mode : Constant
Frame rate : 29.970 (30000/1001) FPS
Standard : NTSC
Color space : YUV
Chroma subsampling : 4:2:0
Bit depth : 8 bits
Scan type : Progressive
Bits/(Pixel*Frame) : 0.149
Stream size : 497 MiB (92%)
Writing library : x264 core 148 r2715 7e75228
Encoding settings : cabac=1 / ref=3 / deblock=1:0:0 / analyse=0x1:0x111 / me=umh / subme=10 / psy=1 / psy_rd=1.00:0.00 / mixed_ref=1 / me_range=24 / chroma_me=1 / trellis=2 / 8x8dct=0 / cqm=0 / deadzone=21,11 / fast_pskip=1 / chroma_qp_offset=-2 / threads=8 / lookahead_threads=1 / sliced_threads=0 / nr=0 / decimate=1 / interlaced=0 / bluray_compat=0 / stitchable=1 / constrained_intra=0 / bframes=2 / b_pyramid=0 / b_adapt=2 / b_bias=0 / direct=3 / weightb=1 / open_gop=0 / weightp=2 / keyint=60 / keyint_min=31 / scenecut=0 / intra_refresh=0 / rc_lookahead=60 / rc=2pass / mbtree=1 / bitrate=1540 / ratetol=1.0 / qcomp=0.50 / qpmin=6 / qpmax=51 / qpstep=4 / cplxblur=20.0 / qblur=0.5 / vbv_maxrate=2310 / vbv_bufsize=3080 / nal_hrd=vbr / filler=0 / ip_ratio=1.40 / aq=1:1.00
Default : Yes
Forced : No

Audio
ID : 2
Format : E-AC-3
Format/Info : Enhanced Audio Coding 3
Format settings, Endianness : Big
Codec ID : A_EAC3
Duration : 45 min 41 s
Bit rate mode : Constant
Bit rate : 128 kb/s
Channel(s) : 2 channels
Channel positions : Front: L R
Sampling rate : 48.0 kHz
Frame rate : 187.500 FPS (256 SPF)
Compression mode : Lossy
Stream size : 41.8 MiB (8%)
Language : English
Service kind : Complete Main
Default : Yes
Forced : No

Text #1
ID : 3
Format : UTF-8
Codec ID : S_TEXT/UTF8
Codec ID/Info : UTF-8 Plain Text
Duration : 44 min 27 s
Bit rate : 91 b/s
Count of elements : 604
Stream size : 29.8 KiB (0%)
Language : English
Default : No
Forced : No

Text #2
ID : 4
Format : UTF-8
Codec ID : S_TEXT/UTF8
Codec ID/Info : UTF-8 Plain Text
Duration : 45 min 7 s
Bit rate : 86 b/s
Count of elements : 651
Stream size : 28.7 KiB (0%)
Title : European
Language : Spanish
Default : No
Forced : No

Text #3
ID : 5
Format : UTF-8
Codec ID : S_TEXT/UTF8
Codec ID/Info : UTF-8 Plain Text
Duration : 45 min 7 s
Bit rate : 91 b/s
Count of elements : 641
Stream size : 30.1 KiB (0%)
Language : French
Default : No
Forced : No

Text #4
ID : 6
Format : UTF-8
Codec ID : S_TEXT/UTF8
Codec ID/Info : UTF-8 Plain Text
Duration : 45 min 7 s
Bit rate : 82 b/s
Count of elements : 652
Stream size : 27.2 KiB (0%)
Language : Polish
Default : No
Forced : No

Text #5
ID : 7
Format : UTF-8
Codec ID : S_TEXT/UTF8
Codec ID/Info : UTF-8 Plain Text
Duration : 45 min 7 s
Bit rate : 85 b/s
Count of elements : 650
Stream size : 28.4 KiB (0%)
Language : Portuguese
Default : No
Forced : No





Genius S01E01


Genius S01E01


Genius S01E01


Genius S01E01


Genius S01E01

All episodes