Index
# A B C D E F G H I J K L M N O P Q R S T U V W Y Z
Tags
Language
Tags

Featured TV Shows


Falling Water S02E05

Posted By: Tavaz
1080p (FullHD) / WEB-DL IMDb
Falling Water S02E05

Falling Water S02E05
WEB-DL | MKV | 1920x1080 | English | H264 @ 8030 kbps | E-AC-3 @ 640 kbps | 41 min 13 s | 2.50 GiB
Subtitles: English
Genre: Drama, Mystery

The story of three unrelated people, who slowly realize that they are dreaming separate parts of a single common dream.

b09983d12fe241d992bf93c9f21c740b.mkv (2.5 GB)



General
Complete name : ./b09983d12fe241d992bf93c9f21c740b.mkv
Format : Matroska
Format version : Version 4 / Version 2
File size : 2.50 GiB
Duration : 41 min 13 s
Overall bit rate mode : Variable
Overall bit rate : 8 672 kb/s
Encoded date : UTC 2018-02-05 05:54:55
Writing application : mkvmerge v13.0.0 ('The Juggler') 64bit
Writing library : libebml v1.3.4 + libmatroska v1.4.5

Video
ID : 1
Format : AVC
Format/Info : Advanced Video Codec
Format profile : High@L4
Format settings : CABAC / 4 Ref Frames
Format settings, CABAC : Yes
Format settings, RefFrames : 4 frames
Codec ID : V_MPEG4/ISO/AVC
Duration : 41 min 13 s
Bit rate mode : Variable
Bit rate : 8 030 kb/s
Maximum bit rate : 15.0 Mb/s
Width : 1 920 pixels
Height : 1 080 pixels
Display aspect ratio : 16:9
Frame rate mode : Constant
Frame rate : 23.976 (24000/1001) FPS
Color space : YUV
Chroma subsampling : 4:2:0
Bit depth : 8 bits
Scan type : Progressive
Bits/(Pixel*Frame) : 0.162
Stream size : 2.31 GiB (93%)
Default : Yes
Forced : No
Color range : Limited
Color primaries : BT.709
Transfer characteristics : BT.709
Matrix coefficients : BT.709

Audio
ID : 2
Format : E-AC-3
Format/Info : Enhanced Audio Coding 3
Format settings, Endianness : Big
Codec ID : A_EAC3
Duration : 41 min 12 s
Bit rate mode : Constant
Bit rate : 640 kb/s
Channel(s) : 6 channels
Channel positions : Front: L C R, Side: L R, LFE
Sampling rate : 48.0 kHz
Frame rate : 187.500 FPS (256 SPF)
Compression mode : Lossy
Stream size : 189 MiB (7%)
Language : English
Service kind : Complete Main
Default : Yes
Forced : No

Text #1
ID : 3
Format : UTF-8
Codec ID : S_TEXT/UTF8
Codec ID/Info : UTF-8 Plain Text
Duration : 40 min 49 s
Bit rate : 78 b/s
Count of elements : 865
Stream size : 23.6 KiB (0%)
Language : English
Default : No
Forced : No

Text #2
ID : 4
Format : UTF-8
Codec ID : S_TEXT/UTF8
Codec ID/Info : UTF-8 Plain Text
Duration : 40 min 49 s
Bit rate : 87 b/s
Count of elements : 988
Stream size : 26.1 KiB (0%)
Title : SDH
Language : English
Default : No
Forced : No

Menu
00:00:00.000 : en:Previously On
00:01:25.000 : en:Another assignment
00:02:46.000 : en:Title Sequence
00:02:57.000 : en:The dream pods continue to come up short
00:06:25.000 : en:Taka and Alexis look for a new suspect
00:08:01.000 : en:"Was it you?"
00:08:45.000 : en:Burton and Tess bid James farewell
00:10:32.000 : en:Taka and Alexis question Miguel Lopez
00:12:40.000 : en:Break
00:12:41.000 : en:Thomas returns home
00:14:16.000 : en:Woody picks a fight at the bar
00:16:21.000 : en:Bill tells Tess about his sister
00:18:33.000 : en:Break
00:18:34.000 : en:Taka and Alexis find another clue
00:20:58.000 : en:Wrong turn
00:23:30.000 : en:Another clue to Lainie's wherabouts
00:24:21.000 : en:Bite your tongue
00:28:51.000 : en:The election goes in a new direction
00:30:35.000 : en:Break
00:30:36.000 : en:Tess, Burton, and Bill stop the bus
00:33:08.000 : en:"A full-on conspiracy"
00:35:34.000 : en:Break
00:35:35.000 : en:Lainie is brought to Tess's home
00:38:27.000 : en:Sam is terminated
00:40:51.000 : en:End Credits





Falling Water S02E05


Falling Water S02E05


Falling Water S02E05


Falling Water S02E05


Falling Water S02E05

All episodes