Index
# A B C D E F G H I J K L M N O P Q R S T U V W X Y Z
Tags
Language
Tags
July 2024
Su Mo Tu We Th Fr Sa
30 1 2 3 4 5 6
7 8 9 10 11 12 13
14 15 16 17 18 19 20
21 22 23 24 25 26 27
28 29 30 31 1 2 3

Featured TV Shows


Fallout S01E08

Posted By: Tavaz
720p (HD) / WEB-DL IMDb
Fallout S01E08

Fallout S01E08
WEB-DL | MKV | 1248x520 | English | H264 @ 3080 kbps | E-AC-3 @ 576.0 kbps | 1 h 2 min | 1.60 GiB
Subtitles: Bokmål, Ελληνικά, Dansk, ภาษาไทย, Magyar, Suomi, Čeština, Polski, עברית, 日本語, العربية, 中文, Русский, English, Português, Türkçe, tiếng Việt, 한국어, Українська, Italiano, Deutsch, Français, Español, हिन्दी, Svenska, Català, Bahasa Indonesia, Română, Nederlands
Genre: Comedy


The story of haves and have-nots in a world in which there’s almost nothing left to have. 200 years after the apocalypse, the gentle denizens of luxury fallout shelters are forced to return to the irradiated hellscape their ancestors left behind — and are shocked to discover an incredibly complex, gleefully weird, and highly violent universe waiting for them.

6e3431652fef4c0eb410dc5845259f52.mkv (1.6 GB)



General
Unique ID : 337421533298426184155205958154079591387 (0xFDD906032E85FEE36FAFF9652B0E5BDB)
Complete name : ./6e3431652fef4c0eb410dc5845259f52.mkv
Format : Matroska
Format version : Version 4
File size : 1.60 GiB
Duration : 1 h 2 min
Overall bit rate : 3 662 kb/s
Writing application : mkvmerge v81.0 ('Milliontown') 64-bit
Writing library : libebml v1.4.4 + libmatroska v1.7.1

Video
ID : 1
Format : AVC
Format/Info : Advanced Video Codec
Format profile : High@L3.1
Format settings : CABAC / 4 Ref Frames
Format settings, CABAC : Yes
Format settings, Reference frames : 4 frames
Codec ID : V_MPEG4/ISO/AVC
Duration : 1 h 2 min
Bit rate mode : Constant
Bit rate : 3 080 kb/s
Nominal bit rate : 4 000 kb/s
Width : 1 248 pixels
Height : 520 pixels
Display aspect ratio : 2.40:1
Frame rate mode : Constant
Frame rate : 24.000 FPS
Color space : YUV
Chroma subsampling : 4:2:0
Bit depth : 8 bits
Scan type : Progressive
Bits/(Pixel*Frame) : 0.198
Stream size : 1.34 GiB (84%)
Default : Yes
Forced : No
Color range : Limited
Color primaries : BT.709
Transfer characteristics : BT.709
Matrix coefficients : BT.709

Audio
ID : 2
Format : E-AC-3 JOC
Format/Info : Enhanced AC-3 with Joint Object Coding
Commercial name : Dolby Digital Plus with Dolby Atmos
Codec ID : A_EAC3
Duration : 1 h 2 min
Bit rate mode : Constant
Bit rate : 576 kb/s
Channel(s) : 6 channels
Channel layout : L R C LFE Ls Rs
Sampling rate : 48.0 kHz
Frame rate : 31.250 FPS (1536 SPF)
Compression mode : Lossy
Stream size : 257 MiB (16%)
Language : English
Service kind : Complete Main
Default : Yes
Forced : No
Complexity index : 16
Number of dynamic objects : 15
Bed channel count : 1 channel
Bed channel configuration : LFE

Text #1
ID : 3
Format : UTF-8
Codec ID : S_TEXT/UTF8
Codec ID/Info : UTF-8 Plain Text
Duration : 56 min 16 s
Bit rate : 46 b/s
Frame rate : 0.180 FPS
Count of elements : 607
Stream size : 19.2 KiB (0%)
Language : English
Default : No
Forced : No

Text #2
ID : 4
Format : UTF-8
Codec ID : S_TEXT/UTF8
Codec ID/Info : UTF-8 Plain Text
Duration : 59 min 1 s
Bit rate : 54 b/s
Frame rate : 0.219 FPS
Count of elements : 776
Stream size : 23.8 KiB (0%)
Title : SDH
Language : English
Default : No
Forced : No

Text #3
ID : 5
Format : UTF-8
Codec ID : S_TEXT/UTF8
Codec ID/Info : UTF-8 Plain Text
Duration : 59 min 5 s
Bit rate : 62 b/s
Frame rate : 0.151 FPS
Count of elements : 536
Stream size : 27.0 KiB (0%)
Language : Arabic
Default : No
Forced : No

Text #4
ID : 6
Format : UTF-8
Codec ID : S_TEXT/UTF8
Codec ID/Info : UTF-8 Plain Text
Duration : 59 min 5 s
Bit rate : 35 b/s
Frame rate : 0.149 FPS
Count of elements : 527
Stream size : 15.3 KiB (0%)
Language : Catalan
Default : No
Forced : No

Text #5
ID : 7
Format : UTF-8
Codec ID : S_TEXT/UTF8
Codec ID/Info : UTF-8 Plain Text
Duration : 59 min 5 s
Bit rate : 39 b/s
Frame rate : 0.148 FPS
Count of elements : 524
Stream size : 17.1 KiB (0%)
Language : Czech
Default : No
Forced : No

Text #6
ID : 8
Format : UTF-8
Codec ID : S_TEXT/UTF8
Codec ID/Info : UTF-8 Plain Text
Duration : 59 min 5 s
Bit rate : 36 b/s
Frame rate : 0.147 FPS
Count of elements : 522
Stream size : 15.7 KiB (0%)
Language : Danish
Default : No
Forced : No

Text #7
ID : 9
Format : UTF-8
Codec ID : S_TEXT/UTF8
Codec ID/Info : UTF-8 Plain Text
Duration : 59 min 5 s
Bit rate : 40 b/s
Frame rate : 0.148 FPS
Count of elements : 524
Stream size : 17.3 KiB (0%)
Language : German
Default : No
Forced : No

Text #8
ID : 10
Format : UTF-8
Codec ID : S_TEXT/UTF8
Codec ID/Info : UTF-8 Plain Text
Duration : 59 min 5 s
Bit rate : 71 b/s
Frame rate : 0.149 FPS
Count of elements : 527
Stream size : 31.1 KiB (0%)
Language : Greek
Default : No
Forced : No

Text #9
ID : 11
Format : UTF-8
Codec ID : S_TEXT/UTF8
Codec ID/Info : UTF-8 Plain Text
Duration : 59 min 5 s
Bit rate : 38 b/s
Frame rate : 0.148 FPS
Count of elements : 523
Stream size : 16.6 KiB (0%)
Title : Spanish (Latin America)
Language : Spanish
Default : No
Forced : No

Text #10
ID : 12
Format : UTF-8
Codec ID : S_TEXT/UTF8
Codec ID/Info : UTF-8 Plain Text
Duration : 59 min 5 s
Bit rate : 39 b/s
Frame rate : 0.144 FPS
Count of elements : 512
Stream size : 17.1 KiB (0%)
Title : Spanish (Spain)
Language : Spanish
Default : No
Forced : No

Text #11
ID : 13
Format : UTF-8
Codec ID : S_TEXT/UTF8
Codec ID/Info : UTF-8 Plain Text
Duration : 59 min 5 s
Bit rate : 36 b/s
Frame rate : 0.149 FPS
Count of elements : 528
Stream size : 15.6 KiB (0%)
Language : Basque
Default : No
Forced : No

Text #12
ID : 14
Format : UTF-8
Codec ID : S_TEXT/UTF8
Codec ID/Info : UTF-8 Plain Text
Duration : 59 min 5 s
Bit rate : 37 b/s
Frame rate : 0.149 FPS
Count of elements : 527
Stream size : 16.2 KiB (0%)
Language : Finnish
Default : No
Forced : No

Text #13
ID : 15
Format : UTF-8
Codec ID : S_TEXT/UTF8
Codec ID/Info : UTF-8 Plain Text
Duration : 59 min 5 s
Bit rate : 42 b/s
Frame rate : 0.147 FPS
Count of elements : 521
Stream size : 18.6 KiB (0%)
Language : fil
Default : No
Forced : No

Text #14
ID : 16
Format : UTF-8
Codec ID : S_TEXT/UTF8
Codec ID/Info : UTF-8 Plain Text
Duration : 59 min 5 s
Bit rate : 41 b/s
Frame rate : 0.148 FPS
Count of elements : 526
Stream size : 17.9 KiB (0%)
Title : French (Canada)
Language : French
Default : No
Forced : No

Text #15
ID : 17
Format : UTF-8
Codec ID : S_TEXT/UTF8
Codec ID/Info : UTF-8 Plain Text
Duration : 59 min 5 s
Bit rate : 37 b/s
Frame rate : 0.149 FPS
Count of elements : 529
Stream size : 16.1 KiB (0%)
Title : French (France)
Language : French
Default : No
Forced : No

Text #16
ID : 18
Format : UTF-8
Codec ID : S_TEXT/UTF8
Codec ID/Info : UTF-8 Plain Text
Duration : 59 min 5 s
Bit rate : 35 b/s
Frame rate : 0.148 FPS
Count of elements : 525
Stream size : 15.3 KiB (0%)
Language : Galician
Default : No
Forced : No

Text #17
ID : 19
Format : UTF-8
Codec ID : S_TEXT/UTF8
Codec ID/Info : UTF-8 Plain Text
Duration : 59 min 5 s
Bit rate : 58 b/s
Frame rate : 0.151 FPS
Count of elements : 536
Stream size : 25.3 KiB (0%)
Language : Hebrew
Default : No
Forced : No

Text #18
ID : 20
Format : UTF-8
Codec ID : S_TEXT/UTF8
Codec ID/Info : UTF-8 Plain Text
Duration : 59 min 5 s
Bit rate : 87 b/s
Frame rate : 0.151 FPS
Count of elements : 536
Stream size : 37.7 KiB (0%)
Language : Hindi
Default : No
Forced : No

Text #19
ID : 21
Format : UTF-8
Codec ID : S_TEXT/UTF8
Codec ID/Info : UTF-8 Plain Text
Duration : 59 min 5 s
Bit rate : 40 b/s
Frame rate : 0.149 FPS
Count of elements : 527
Stream size : 17.5 KiB (0%)
Language : Hungarian
Default : No
Forced : No

Text #20
ID : 22
Format : UTF-8
Codec ID : S_TEXT/UTF8
Codec ID/Info : UTF-8 Plain Text
Duration : 59 min 5 s
Bit rate : 37 b/s
Frame rate : 0.149 FPS
Count of elements : 529
Stream size : 16.2 KiB (0%)
Language : Indonesian
Default : No
Forced : No

Text #21
ID : 23
Format : UTF-8
Codec ID : S_TEXT/UTF8
Codec ID/Info : UTF-8 Plain Text
Duration : 59 min 5 s
Bit rate : 39 b/s
Frame rate : 0.147 FPS
Count of elements : 521
Stream size : 17.2 KiB (0%)
Language : Italian
Default : No
Forced : No

Text #22
ID : 24
Format : UTF-8
Codec ID : S_TEXT/UTF8
Codec ID/Info : UTF-8 Plain Text
Duration : 59 min 4 s
Bit rate : 37 b/s
Frame rate : 0.153 FPS
Count of elements : 543
Stream size : 16.3 KiB (0%)
Language : Japanese
Default : No
Forced : No

Text #23
ID : 25
Format : UTF-8
Codec ID : S_TEXT/UTF8
Codec ID/Info : UTF-8 Plain Text
Duration : 59 min 5 s
Bit rate : 93 b/s
Frame rate : 0.151 FPS
Count of elements : 537
Stream size : 40.6 KiB (0%)
Language : Kannada
Default : No
Forced : No

Text #24
ID : 26
Format : UTF-8
Codec ID : S_TEXT/UTF8
Codec ID/Info : UTF-8 Plain Text
Duration : 59 min 5 s
Bit rate : 43 b/s
Frame rate : 0.151 FPS
Count of elements : 536
Stream size : 18.8 KiB (0%)
Language : Korean
Default : No
Forced : No

Text #25
ID : 27
Format : UTF-8
Codec ID : S_TEXT/UTF8
Codec ID/Info : UTF-8 Plain Text
Duration : 59 min 5 s
Bit rate : 118 b/s
Frame rate : 0.149 FPS
Count of elements : 530
Stream size : 51.1 KiB (0%)
Language : Malayalam
Default : No
Forced : No

Text #26
ID : 28
Format : UTF-8
Codec ID : S_TEXT/UTF8
Codec ID/Info : UTF-8 Plain Text
Duration : 59 min 5 s
Bit rate : 40 b/s
Frame rate : 0.148 FPS
Count of elements : 525
Stream size : 17.4 KiB (0%)
Language : Malay
Default : No
Forced : No

Text #27
ID : 29
Format : UTF-8
Codec ID : S_TEXT/UTF8
Codec ID/Info : UTF-8 Plain Text
Duration : 59 min 5 s
Bit rate : 36 b/s
Frame rate : 0.148 FPS
Count of elements : 526
Stream size : 15.9 KiB (0%)
Language : Norwegian Bokmal
Default : No
Forced : No

Text #28
ID : 30
Format : UTF-8
Codec ID : S_TEXT/UTF8
Codec ID/Info : UTF-8 Plain Text
Duration : 59 min 5 s
Bit rate : 35 b/s
Frame rate : 0.144 FPS
Count of elements : 512
Stream size : 15.3 KiB (0%)
Language : Dutch
Default : No
Forced : No

Text #29
ID : 31
Format : UTF-8
Codec ID : S_TEXT/UTF8
Codec ID/Info : UTF-8 Plain Text
Duration : 59 min 5 s
Bit rate : 33 b/s
Frame rate : 0.148 FPS
Count of elements : 523
Stream size : 14.7 KiB (0%)
Language : Polish
Default : No
Forced : No

Text #30
ID : 32
Format : UTF-8
Codec ID : S_TEXT/UTF8
Codec ID/Info : UTF-8 Plain Text
Duration : 59 min 5 s
Bit rate : 37 b/s
Frame rate : 0.148 FPS
Count of elements : 526
Stream size : 16.4 KiB (0%)
Title : Portuguese (Brazil)
Language : Portuguese
Default : No
Forced : No

Text #31
ID : 33
Format : UTF-8
Codec ID : S_TEXT/UTF8
Codec ID/Info : UTF-8 Plain Text
Duration : 59 min 5 s
Bit rate : 37 b/s
Frame rate : 0.150 FPS
Count of elements : 531
Stream size : 16.0 KiB (0%)
Title : Portuguese (Portugal)
Language : Portuguese
Default : No
Forced : No

Text #32
ID : 34
Format : UTF-8
Codec ID : S_TEXT/UTF8
Codec ID/Info : UTF-8 Plain Text
Duration : 59 min 5 s
Bit rate : 41 b/s
Frame rate : 0.148 FPS
Count of elements : 525
Stream size : 18.0 KiB (0%)
Language : Romanian
Default : No
Forced : No

Text #33
ID : 35
Format : UTF-8
Codec ID : S_TEXT/UTF8
Codec ID/Info : UTF-8 Plain Text
Duration : 59 min 5 s
Bit rate : 65 b/s
Frame rate : 0.151 FPS
Count of elements : 535
Stream size : 28.5 KiB (0%)
Language : Russian
Default : No
Forced : No

Text #34
ID : 36
Format : UTF-8
Codec ID : S_TEXT/UTF8
Codec ID/Info : UTF-8 Plain Text
Duration : 59 min 5 s
Bit rate : 39 b/s
Frame rate : 0.148 FPS
Count of elements : 525
Stream size : 17.2 KiB (0%)
Language : Swedish
Default : No
Forced : No

Text #35
ID : 37
Format : UTF-8
Codec ID : S_TEXT/UTF8
Codec ID/Info : UTF-8 Plain Text
Duration : 59 min 5 s
Bit rate : 111 b/s
Frame rate : 0.151 FPS
Count of elements : 537
Stream size : 48.4 KiB (0%)
Language : Tamil
Default : No
Forced : No

Text #36
ID : 38
Format : UTF-8
Codec ID : S_TEXT/UTF8
Codec ID/Info : UTF-8 Plain Text
Duration : 59 min 5 s
Bit rate : 102 b/s
Frame rate : 0.151 FPS
Count of elements : 536
Stream size : 44.2 KiB (0%)
Language : Telugu
Default : No
Forced : No

Text #37
ID : 39
Format : UTF-8
Codec ID : S_TEXT/UTF8
Codec ID/Info : UTF-8 Plain Text
Duration : 59 min 5 s
Bit rate : 98 b/s
Frame rate : 0.151 FPS
Count of elements : 536
Stream size : 42.7 KiB (0%)
Language : Thai
Default : No
Forced : No

Text #38
ID : 40
Format : UTF-8
Codec ID : S_TEXT/UTF8
Codec ID/Info : UTF-8 Plain Text
Duration : 59 min 5 s
Bit rate : 40 b/s
Frame rate : 0.149 FPS
Count of elements : 528
Stream size : 17.6 KiB (0%)
Language : Turkish
Default : No
Forced : No

Text #39
ID : 41
Format : UTF-8
Codec ID : S_TEXT/UTF8
Codec ID/Info : UTF-8 Plain Text
Duration : 59 min 5 s
Bit rate : 62 b/s
Frame rate : 0.150 FPS
Count of elements : 533
Stream size : 27.1 KiB (0%)
Language : Ukrainian
Default : No
Forced : No

Text #40
ID : 42
Format : UTF-8
Codec ID : S_TEXT/UTF8
Codec ID/Info : UTF-8 Plain Text
Duration : 59 min 5 s
Bit rate : 52 b/s
Frame rate : 0.149 FPS
Count of elements : 527
Stream size : 22.8 KiB (0%)
Language : Vietnamese
Default : No
Forced : No

Text #41
ID : 43
Format : UTF-8
Codec ID : S_TEXT/UTF8
Codec ID/Info : UTF-8 Plain Text
Duration : 59 min 5 s
Bit rate : 36 b/s
Frame rate : 0.151 FPS
Count of elements : 535
Stream size : 15.6 KiB (0%)
Title : Chinese (Simplified)
Language : Chinese
Default : No
Forced : No

Text #42
ID : 44
Format : UTF-8
Codec ID : S_TEXT/UTF8
Codec ID/Info : UTF-8 Plain Text
Duration : 59 min 5 s
Bit rate : 35 b/s
Frame rate : 0.151 FPS
Count of elements : 535
Stream size : 15.3 KiB (0%)
Title : Chinese (Traditional)
Language : Chinese
Default : No
Forced : No

Menu
00:00:00.000 : :Studio Logo
00:00:06.000 : :Previously On
00:01:41.000 : :Studio Logo
00:01:53.000 : :Scene 4
00:02:37.000 : :Scene 5
00:05:44.000 : :Scene 6
00:07:39.000 : :Scene 7
00:08:46.000 : :Scene 8
00:09:16.000 : :Scene 9
00:09:20.000 : :Scene 10
00:09:42.000 : :Scene 11
00:11:46.000 : :Title Sequence
00:11:57.000 : :Scene 13
00:12:38.000 : :Scene 14
00:14:33.000 : :Scene 15
00:16:08.000 : :Scene 16
00:20:13.000 : :Scene 17
00:21:17.000 : :Scene 18
00:22:02.000 : :Scene 19
00:22:42.000 : :Scene 20
00:24:10.000 : :Scene 21
00:24:51.000 : :Scene 22
00:25:29.000 : :Scene 23
00:26:18.000 : :Scene 24
00:27:59.000 : :Scene 25
00:30:06.000 : :Scene 26
00:31:39.000 : :Scene 27
00:33:09.000 : :Scene 28
00:33:49.000 : :Scene 29
00:34:33.000 : :Scene 30
00:35:53.000 : :Scene 31
00:36:59.000 : :Scene 32
00:37:35.000 : :Scene 33
00:39:02.000 : :Scene 34
00:40:06.000 : :Scene 35
00:40:30.000 : :Scene 36
00:41:24.000 : :Scene 37
00:42:19.000 : :Scene 38
00:44:05.000 : :Scene 39
00:45:27.000 : :Scene 40
00:46:08.000 : :Scene 41
00:46:57.000 : :Scene 42
00:47:34.000 : :Scene 43
00:48:59.000 : :Scene 44
00:50:42.000 : :Scene 45
00:54:09.000 : :Scene 46
00:55:07.000 : :Scene 47
00:55:35.000 : :Scene 48
00:56:27.000 : :End Credits





Fallout S01E08


Fallout S01E08


Fallout S01E08


Fallout S01E08


Fallout S01E08

All episodes