Featured TV Shows


FEUD S1981E17

Posted By: Tavaz
FEUD S1981E17

FEUD S1981E17
MKV | 640x480 | English | H264 @ 1217 kbps | AC-3 @ 256 kbps | 22 min 20 s | 236 MiB
Subtitles: English
Genre: Drama

Anthology series of famous feuds with the first season based on the legendary rivalry between Bette Davis and Joan Crawford which began early on their careers, climaxed on the set of "Whatever Happened to Baby Jane?" and evolved into an Oscar vendetta.

Family.Feud.S1981E0017.DSR.x264-JiTB.mkv (235.9 MB)



General
Unique ID : 224387836492406635705747161479720497068 (0xA8CF867D0E4589AAB077D6F9A3DC6FAC)
Complete name : ./Family.Feud.S1981E0017.DSR.x264-JiTB.mkv
Format : Matroska
Format version : Version 4 / Version 2
File size : 236 MiB
Duration : 22 min 20 s
Overall bit rate : 1 476 kb/s
Encoded date : UTC 2018-05-31 05:14:20
Writing application : mkvmerge v8.3.0 ('Over the Horizon') 64bit
Writing library : libebml v1.3.1 + libmatroska v1.4.2

Video
ID : 1
Format : AVC
Format/Info : Advanced Video Codec
Format profile : High@L3.1
Format settings : CABAC / 5 Ref Frames
Format settings, CABAC : Yes
Format settings, RefFrames : 5 frames
Codec ID : V_MPEG4/ISO/AVC
Duration : 22 min 20 s
Bit rate : 1 217 kb/s
Width : 640 pixels
Height : 480 pixels
Display aspect ratio : 4:3
Frame rate mode : Constant
Frame rate : 29.970 (30000/1001) FPS
Color space : YUV
Chroma subsampling : 4:2:0
Bit depth : 8 bits
Scan type : Progressive
Bits/(Pixel*Frame) : 0.132
Stream size : 195 MiB (82%)
Writing library : x264 core 146 r2538 121396c
Encoding settings : cabac=1 / ref=5 / deblock=1:-2:-2 / analyse=0x3:0 / me=umh / subme=8 / psy=1 / psy_rd=1.00:0.00 / mixed_ref=1 / me_range=16 / chroma_me=1 / trellis=2 / 8x8dct=1 / cqm=0 / deadzone=21,11 / fast_pskip=1 / chroma_qp_offset=-2 / threads=12 / lookahead_threads=2 / sliced_threads=0 / nr=0 / decimate=1 / interlaced=0 / bluray_compat=0 / constrained_intra=0 / bframes=3 / b_pyramid=2 / b_adapt=2 / b_bias=0 / direct=1 / weightb=1 / open_gop=0 / weightp=2 / keyint=250 / keyint_min=23 / scenecut=40 / intra_refresh=0 / rc_lookahead=50 / rc=crf / mbtree=1 / crf=19.0 / qcomp=0.60 / qpmin=0 / qpmax=69 / qpstep=4 / ip_ratio=1.40 / aq=1:1.00
Language : English
Default : Yes
Forced : No

Audio
ID : 2
Format : AC-3
Format/Info : Audio Coding 3
Format settings, Endianness : Big
Codec ID : A_AC3
Duration : 22 min 20 s
Bit rate mode : Constant
Bit rate : 256 kb/s
Channel(s) : 2 channels
Channel positions : Front: L R
Sampling rate : 48.0 kHz
Frame rate : 31.250 FPS (1536 SPF)
Bit depth : 16 bits
Compression mode : Lossy
Stream size : 40.9 MiB (17%)
Language : English
Service kind : Complete Main
Default : Yes
Forced : No

Text
ID : 3
Format : UTF-8
Codec ID : S_TEXT/UTF8
Codec ID/Info : UTF-8 Plain Text
Duration : 22 min 13 s
Bit rate : 123 b/s
Count of elements : 516
Stream size : 20.1 KiB (0%)
Language : English
Default : Yes
Forced : No





FEUD S1981E17


FEUD S1981E17


FEUD S1981E17


FEUD S1981E17


FEUD S1981E17

All episodes