Featured TV Shows


Famous in Love S02E02

Posted By: Tavaz
720p (HD) / WEB-DL IMDb
Famous in Love S02E02

Famous in Love S02E02
WEB-DL | MKV | 1280x720 | English | H264 @ 2619 kbps | E-AC-3 @ 640 kbps | 42 min 0 s | 980 MiB
Subtitles: English
Genre: Drama

Ordinary college student Paige gets her big break after auditioning for the starring role in a Hollywood blockbuster. She must now navigate her new star-studded life and the highs and lows that come with being the new It Girl in town as well as balancing her college workload.

28322e65a1ad4679b624e79cf6367948.mkv (980.1 MB)



General
Unique ID : 24412085979055525077959372742539477930 (0x125D98C3E67C53DB37618F981C7603AA)
Complete name : ./28322e65a1ad4679b624e79cf6367948.mkv
Format : Matroska
Format version : Version 4 / Version 2
File size : 980 MiB
Duration : 42 min 0 s
Overall bit rate mode : Variable
Overall bit rate : 3 261 kb/s
Encoded date : UTC 2018-04-06 22:18:31
Writing application : mkvmerge v21.0.0 ('Tardigrades Will Inherit The Earth') 64-bit
Writing library : libebml v1.3.5 + libmatroska v1.4.8

Video
ID : 1
Format : AVC
Format/Info : Advanced Video Codec
Format profile : High@L3.1
Format settings : CABAC / 5 Ref Frames
Format settings, CABAC : Yes
Format settings, RefFrames : 5 frames
Codec ID : V_MPEG4/ISO/AVC
Duration : 42 min 0 s
Bit rate mode : Variable
Bit rate : 2 619 kb/s
Maximum bit rate : 4 500 kb/s
Width : 1 280 pixels
Height : 720 pixels
Display aspect ratio : 16:9
Frame rate mode : Constant
Frame rate : 23.976 (24000/1001) FPS
Color space : YUV
Chroma subsampling : 4:2:0
Bit depth : 8 bits
Scan type : Progressive
Bits/(Pixel*Frame) : 0.119
Stream size : 787 MiB (80%)
Default : Yes
Forced : No
Color range : Limited
Color primaries : BT.709
Transfer characteristics : BT.709
Matrix coefficients : BT.709

Audio
ID : 2
Format : E-AC-3
Format/Info : Enhanced Audio Coding 3
Format settings, Endianness : Big
Codec ID : A_EAC3
Duration : 42 min 0 s
Bit rate mode : Constant
Bit rate : 640 kb/s
Channel(s) : 6 channels
Channel positions : Front: L C R, Side: L R, LFE
Sampling rate : 48.0 kHz
Frame rate : 187.500 FPS (256 SPF)
Compression mode : Lossy
Stream size : 192 MiB (20%)
Language : English
Service kind : Complete Main
Default : Yes
Forced : No

Text #1
ID : 3
Format : UTF-8
Codec ID : S_TEXT/UTF8
Codec ID/Info : UTF-8 Plain Text
Duration : 41 min 22 s
Bit rate : 88 b/s
Count of elements : 862
Stream size : 26.9 KiB (0%)
Language : English
Default : No
Forced : No

Text #2
ID : 4
Format : UTF-8
Codec ID : S_TEXT/UTF8
Codec ID/Info : UTF-8 Plain Text
Duration : 41 min 31 s
Bit rate : 91 b/s
Count of elements : 892
Stream size : 28.0 KiB (0%)
Title : SDH
Language : English
Default : No
Forced : No





Famous in Love S02E02


Famous in Love S02E02


Famous in Love S02E02


Famous in Love S02E02


Famous in Love S02E02

All episodes