Featured TV Shows


Father Brown S06E09

Posted By: Tavaz
720p (HD) / WEBRip IMDb
Father Brown S06E09

Father Brown S06E09
WEBRip | MKV | 1280x720 | English | H264 @ 2318 kbps | AAC @ 317 kbps | 44 min 43 s | 844 MiB
Genre: Drama, Crime, Mystery

Father Brown is based on G. K. Chesterton's detective stories about a Catholic priest who doubles as an amateur detective in order to try and solve mysteries.

Father.Brown.2013.S06E09.720p.iP.WEB-DL.AAC2.0.H.264-BTW.mkv (843.8 MB)



General
Unique ID : 79845554699824667722062906068106576348 (0x3C11B1C8EF1D3F144CA6BC01A69D81DC)
Complete name : ./Father.Brown.2013.S06E09.720p.iP.WEB-DL.AAC2.0.H.264-BTW.mkv
Format : Matroska
Format version : Version 4 / Version 2
File size : 844 MiB
Duration : 44 min 43 s
Overall bit rate mode : Variable
Overall bit rate : 2 638 kb/s
Encoded date : UTC 2018-01-11 15:06:57
Writing application : mkvmerge v15.0.0 ('Duel with the Devil') 64-bit
Writing library : libebml v1.3.5 + libmatroska v1.4.5

Video
ID : 2
Format : AVC
Format/Info : Advanced Video Codec
Format profile : High@L4.1
Format settings : CABAC / 2 Ref Frames
Format settings, CABAC : Yes
Format settings, RefFrames : 2 frames
Codec ID : V_MPEG4/ISO/AVC
Duration : 44 min 43 s
Bit rate mode : Variable
Bit rate : 2 318 kb/s
Maximum bit rate : 3 500 kb/s
Width : 1 280 pixels
Height : 720 pixels
Display aspect ratio : 16:9
Frame rate mode : Constant
Frame rate : 25.000 FPS
Color space : YUV
Chroma subsampling : 4:2:0
Bit depth : 8 bits
Scan type : Progressive
Bits/(Pixel*Frame) : 0.101
Stream size : 742 MiB (88%)
Default : Yes
Forced : No

Audio
ID : 1
Format : AAC
Format/Info : Advanced Audio Codec
Format profile : LC
Codec ID : A_AAC-2
Duration : 44 min 42 s
Bit rate : 317 kb/s
Channel(s) : 2 channels
Channel positions : Front: L R
Sampling rate : 48.0 kHz
Frame rate : 46.875 FPS (1024 SPF)
Compression mode : Lossy
Delay relative to video : -40 ms
Stream size : 102 MiB (12%)
Language : English
Default : Yes
Forced : No

Text
ID : 3
Format : UTF-8
Codec ID : S_TEXT/UTF8
Codec ID/Info : UTF-8 Plain Text
Duration : 43 min 27 s
Bit rate : 158 b/s
Count of elements : 716
Stream size : 50.3 KiB (0%)
Default : No
Forced : No





Father Brown S06E09


Father Brown S06E09


Father Brown S06E09


Father Brown S06E09


Father Brown S06E09

All episodes