Featured TV Shows


Father Brown S07E01

Posted By: Tavaz
1080p (FullHD) / HDTV IMDb
Father Brown S07E01

Father Brown S07E01
HDTV | MKV | 1920x1080 | English / English | H264 @ 3338 kbps | AC-3 @ 384 kbps | 43 min 42 s | 1.24 GiB
Subtitles: English
Genre: Drama, Crime, Mystery

Father Brown is based on G. K. Chesterton's detective stories about a Catholic priest who doubles as an amateur detective in order to try and solve mysteries.

0ce9eb8e95a7426581c012d206dedb17.mkv (1.2 GB)



General
Unique ID : 258888027859561455410831438621769105573 (0xC2C40540217D56BE0EEEE50F449E80A5)
Complete name : ./0ce9eb8e95a7426581c012d206dedb17.mkv
Format : Matroska
Format version : Version 4 / Version 2
File size : 1.24 GiB
Duration : 43 min 42 s
Overall bit rate : 4 059 kb/s
Movie name : Father Brown 2013 S07E01 The Great Train Robbery 1080p HDTV H264 KETTLE
Encoded date : UTC 2019-01-08 21:11:11
Writing application : !–[What's All This Then!]–!
Writing library : {{–-> x264/H264 User Un-Friendly Encoding/Muxing TooL <–-}}

Video
ID : 1
Format : AVC
Format/Info : Advanced Video Codec
Format profile : High@L4
Format settings : CABAC / 4 Ref Frames
Format settings, CABAC : Yes
Format settings, RefFrames : 4 frames
Format settings, GOP : M=8, N=24
Codec ID : V_MPEG4/ISO/AVC
Duration : 43 min 42 s
Bit rate : 3 339 kb/s
Width : 1 920 pixels
Height : 1 080 pixels
Display aspect ratio : 16:9
Frame rate mode : Constant
Frame rate : 25.000 FPS
Standard : Component
Color space : YUV
Chroma subsampling : 4:2:0
Bit depth : 8 bits
Scan type : MBAFF
Scan type, store method : Interleaved fields
Scan order : Top Field First
Bits/(Pixel*Frame) : 0.064
Stream size : 1.02 GiB (82%)
Language : English
Default : Yes
Forced : No
Color range : Limited
Color primaries : BT.709
Transfer characteristics : BT.709
Matrix coefficients : BT.709

Audio #1
ID : 2
Format : AC-3
Format/Info : Audio Coding 3
Format settings, Endianness : Big
Codec ID : A_AC3
Duration : 43 min 42 s
Bit rate mode : Constant
Bit rate : 384 kb/s
Channel(s) : 6 channels
Channel positions : Front: L C R, Side: L R, LFE
Sampling rate : 48.0 kHz
Frame rate : 31.250 FPS (1536 SPF)
Bit depth : 16 bits
Compression mode : Lossy
Stream size : 120 MiB (9%)
Language : English
Service kind : Complete Main
Default : Yes
Forced : No

Audio #2
ID : 3
Format : MPEG Audio
Format version : Version 1
Format profile : Layer 2
Codec ID : A_MPEG/L2
Codec ID/Hint : MP2
Duration : 43 min 42 s
Bit rate mode : Constant
Bit rate : 256 kb/s
Channel(s) : 2 channels
Sampling rate : 48.0 kHz
Compression mode : Lossy
Stream size : 80.0 MiB (6%)
Title : Audio Description
Language : English
Default : No
Forced : No

Text
ID : 4
Format : UTF-8
Codec ID : S_TEXT/UTF8
Codec ID/Info : UTF-8 Plain Text
Language : English
Default : No
Forced : No





Father Brown S07E01


Father Brown S07E01


Father Brown S07E01


Father Brown S07E01


Father Brown S07E01

All episodes