Featured TV Shows


Father Brown S07E01

Posted By: Tavaz
SD / WEB-DL IMDb
Father Brown S07E01

Father Brown S07E01
WEB-DL | MKV | 960x540 | English | H264 @ 2719 kbps | AAC @ 96 kbps | 43 min 41 s | 880 MiB
Genre: Drama, Crime, Mystery

Father Brown is based on G. K. Chesterton's detective stories about a Catholic priest who doubles as an amateur detective in order to try and solve mysteries.

376e554ba3394c678e6fb12c57978935.mkv (880.3 MB)



General
Unique ID : 70296953218276714350088495666863767023 (0x34E2B3626699A9AA00FD6CDC3C8B7DEF)
Complete name : ./376e554ba3394c678e6fb12c57978935.mkv
Format : Matroska
Format version : Version 4 / Version 2
File size : 880 MiB
Duration : 43 min 41 s
Overall bit rate : 2 818 kb/s
Encoded date : UTC 2019-01-09 22:52:50
Writing application : mkvmerge v29.0.0 ('Like It Or Not') 64-bit
Writing library : libebml v1.3.6 + libmatroska v1.4.9

Video
ID : 1
Format : AVC
Format/Info : Advanced Video Codec
Format profile : High@L3.1
Format settings : CABAC / 4 Ref Frames
Format settings, CABAC : Yes
Format settings, RefFrames : 4 frames
Codec ID : V_MPEG4/ISO/AVC
Duration : 43 min 41 s
Bit rate : 2 719 kb/s
Width : 960 pixels
Height : 540 pixels
Display aspect ratio : 16:9
Frame rate mode : Constant
Frame rate : 50.000 FPS
Color space : YUV
Chroma subsampling : 4:2:0
Bit depth : 8 bits
Scan type : Progressive
Bits/(Pixel*Frame) : 0.105
Stream size : 850 MiB (97%)
Default : Yes
Forced : No
Color range : Limited
Color primaries : BT.709
Transfer characteristics : BT.709
Matrix coefficients : BT.709

Audio
ID : 2
Format : AAC
Format/Info : Advanced Audio Codec
Format profile : HE-AAC / LC
Format settings : Explicit
Codec ID : A_AAC-2
Duration : 43 min 41 s
Bit rate : 96.0 kb/s
Channel(s) : 2 channels
Channel positions : Front: L R
Sampling rate : 48.0 kHz / 24.0 kHz
Frame rate : 23.438 FPS (1024 SPF)
Compression mode : Lossy
Delay relative to video : -20 ms
Stream size : 29.6 MiB (3%)
Default : Yes
Forced : No

Text
ID : 3
Format : UTF-8
Codec ID : S_TEXT/UTF8
Codec ID/Info : UTF-8 Plain Text
Duration : 42 min 22 s
Bit rate : 79 b/s
Count of elements : 704
Stream size : 24.6 KiB (0%)
Default : Yes
Forced : No





Father Brown S07E01


Father Brown S07E01


Father Brown S07E01


Father Brown S07E01


Father Brown S07E01

All episodes