Featured TV Shows


Father Brown S07E03

Posted By: Tavaz
720p (HD) / HDTV IMDb
Father Brown S07E03

Father Brown S07E03
HDTV | MKV | 1280x720 | English / English | H264 @ 1920 kbps | AC-3 @ 384 kbps | 43 min 58 s | 822 MiB
Subtitles: English
Genre: Drama, Crime, Mystery

Father Brown is based on G. K. Chesterton's detective stories about a Catholic priest who doubles as an amateur detective in order to try and solve mysteries.

f73c3ff5056a44d6acc7555425bab28b.mkv (821.8 MB)



General
Unique ID : 337939403053236751448196812973340060500 (0xFE3CC2F67054E30FED470B657D7F6B54)
Complete name : ./f73c3ff5056a44d6acc7555425bab28b.mkv
Format : Matroska
Format version : Version 4 / Version 2
File size : 822 MiB
Duration : 43 min 58 s
Overall bit rate : 2 613 kb/s
Movie name : Father Brown 2013 S07E03 The Whistle In The Dark 720p HDTV x264 KETTLE
Encoded date : UTC 2019-01-09 15:00:08
Writing application : !–[What's All This Then!]–!
Writing library : {{–-> x264/H264 User Un-Friendly Encoding/Muxing TooL <–-}}

Video
ID : 1
Format : AVC
Format/Info : Advanced Video Codec
Format profile : High@L4.1
Format settings : CABAC / 5 Ref Frames
Format settings, CABAC : Yes
Format settings, RefFrames : 5 frames
Codec ID : V_MPEG4/ISO/AVC
Duration : 43 min 58 s
Bit rate : 1 921 kb/s
Width : 1 280 pixels
Height : 720 pixels
Display aspect ratio : 16:9
Frame rate mode : Constant
Frame rate : 25.000 FPS
Color space : YUV
Chroma subsampling : 4:2:0
Bit depth : 8 bits
Scan type : Progressive
Bits/(Pixel*Frame) : 0.083
Stream size : 604 MiB (74%)
Writing library : x264 core 157 r2935 545de2f KETTLE's/BRiTiSHB00Bs' Custom Build (o_o) :o
Encoding settings : cabac=1 / ref=5 / deblock=1:-2:-2 / analyse=0x3:0x113 / me=umh / subme=9 / psy=1 / psy_rd=1.00:0.00 / mixed_ref=1 / me_range=16 / chroma_me=1 / trellis=2 / 8x8dct=1 / cqm=0 / deadzone=21,11 / fast_pskip=1 / chroma_qp_offset=-2 / threads=12 / lookahead_threads=1 / sliced_threads=0 / nr=0 / decimate=1 / interlaced=0 / bluray_compat=0 / constrained_intra=0 / bframes=5 / b_pyramid=2 / b_adapt=1 / b_bias=0 / direct=3 / weightb=1 / open_gop=0 / weightp=2 / keyint=250 / keyint_min=25 / scenecut=40 / intra_refresh=0 / rc_lookahead=50 / rc=crf / mbtree=1 / crf=18.0 / qcomp=0.60 / qpmin=0 / qpmax=69 / qpstep=4 / ip_ratio=1.40 / aq=1:1.00
Language : English
Default : Yes
Forced : No
Color range : Limited
Matrix coefficients : BT.709

Audio #1
ID : 2
Format : AC-3
Format/Info : Audio Coding 3
Format settings, Endianness : Big
Codec ID : A_AC3
Duration : 43 min 58 s
Bit rate mode : Constant
Bit rate : 384 kb/s
Channel(s) : 6 channels
Channel positions : Front: L C R, Side: L R, LFE
Sampling rate : 48.0 kHz
Frame rate : 31.250 FPS (1536 SPF)
Bit depth : 16 bits
Compression mode : Lossy
Delay relative to video : -24 ms
Stream size : 121 MiB (15%)
Language : English
Service kind : Complete Main
Default : Yes
Forced : No

Audio #2
ID : 3
Format : MPEG Audio
Format version : Version 1
Format profile : Layer 2
Codec ID : A_MPEG/L2
Codec ID/Hint : MP2
Duration : 43 min 58 s
Bit rate mode : Constant
Bit rate : 256 kb/s
Channel(s) : 2 channels
Sampling rate : 48.0 kHz
Compression mode : Lossy
Delay relative to video : -35 ms
Stream size : 80.5 MiB (10%)
Title : Audio Description
Language : English
Default : No
Forced : No

Text
ID : 4
Format : UTF-8
Codec ID : S_TEXT/UTF8
Codec ID/Info : UTF-8 Plain Text
Language : English
Default : No
Forced : No





Father Brown S07E03


Father Brown S07E03


Father Brown S07E03


Father Brown S07E03


Father Brown S07E03

All episodes