Father Brown S07E05

Posted By: Tavaz
1080p (FullHD) / HDTV IMDb
Father Brown S07E05

Father Brown S07E05
HDTV | MKV | 1920x1080 | English | H264 @ 3191 kbps | AC-3 @ 384 kbps | 44 min 36 s | 1.14 GiB
Genre: Drama, Crime, Mystery

Father Brown is based on G. K. Chesterton's detective stories about a Catholic priest who doubles as an amateur detective in order to try and solve mysteries.

f6a1d2239eee48e2ab2f89ec6e3bde6f.mkv (1.1 GB)



General
Unique ID : 0 (0x0)
Complete name : ./f6a1d2239eee48e2ab2f89ec6e3bde6f.mkv
Format : Matroska
Format version : Version 4 / Version 2
File size : 1.14 GiB
Duration : 44 min 36 s
Overall bit rate : 3 648 kb/s
Encoded date : UTC 2010-02-22 21:41:29
Writing application : no_variable_data
Writing library : no_variable_data

Video
ID : 1
Format : AVC
Format/Info : Advanced Video Codec
Format profile : High@L4
Format settings : CABAC / 4 Ref Frames
Format settings, CABAC : Yes
Format settings, RefFrames : 4 frames
Codec ID : V_MPEG4/ISO/AVC
Duration : 44 min 36 s
Bit rate : 3 191 kb/s
Width : 1 920 pixels
Height : 1 080 pixels
Display aspect ratio : 16:9
Frame rate mode : Constant
Frame rate : 25.000 FPS
Standard : Component
Color space : YUV
Chroma subsampling : 4:2:0
Bit depth : 8 bits
Scan type : MBAFF
Scan type, store method : Interleaved fields
Scan order : Top Field First
Bits/(Pixel*Frame) : 0.062
Stream size : 1 018 MiB (87%)
Default : Yes
Forced : No
Color range : Limited
Color primaries : BT.709
Transfer characteristics : BT.709
Matrix coefficients : BT.709

Audio
ID : 2
Format : AC-3
Format/Info : Audio Coding 3
Format settings, Endianness : Big
Codec ID : A_AC3
Duration : 44 min 36 s
Bit rate mode : Constant
Bit rate : 384 kb/s
Channel(s) : 6 channels
Channel positions : Front: L C R, Side: L R, LFE
Sampling rate : 48.0 kHz
Frame rate : 31.250 FPS (1536 SPF)
Bit depth : 16 bits
Compression mode : Lossy
Stream size : 123 MiB (11%)
Language : English
Service kind : Complete Main
Default : Yes
Forced : No





Father Brown S07E05


Father Brown S07E05


Father Brown S07E05


Father Brown S07E05


Father Brown S07E05

All episodes