Featured TV Shows


Father Brown S07E05

Posted By: Tavaz
SD / WEB-DL IMDb
Father Brown S07E05

Father Brown S07E05
WEB-DL | MKV | 960x540 | English | H264 @ 2498 kbps | AAC @ 96 kbps | 44 min 36 s | 828 MiB
Genre: Drama, Crime, Mystery

Father Brown is based on G. K. Chesterton's detective stories about a Catholic priest who doubles as an amateur detective in order to try and solve mysteries.

485cacbb2d1848e6b5b4c56b9e0206e9.mkv (828.4 MB)



General
Unique ID : 311576823465045704682405439196479955680 (0xEA678370128712A51BCBE6F7B19D22E0)
Complete name : ./485cacbb2d1848e6b5b4c56b9e0206e9.mkv
Format : Matroska
Format version : Version 4 / Version 2
File size : 828 MiB
Duration : 44 min 36 s
Overall bit rate : 2 597 kb/s
Encoded date : UTC 2019-01-11 15:25:27
Writing application : mkvmerge v29.0.0 ('Like It Or Not') 64-bit
Writing library : libebml v1.3.6 + libmatroska v1.4.9

Video
ID : 1
Format : AVC
Format/Info : Advanced Video Codec
Format profile : High@L3.1
Format settings : CABAC / 4 Ref Frames
Format settings, CABAC : Yes
Format settings, RefFrames : 4 frames
Codec ID : V_MPEG4/ISO/AVC
Duration : 44 min 36 s
Bit rate : 2 498 kb/s
Width : 960 pixels
Height : 540 pixels
Display aspect ratio : 16:9
Frame rate mode : Constant
Frame rate : 50.000 FPS
Color space : YUV
Chroma subsampling : 4:2:0
Bit depth : 8 bits
Scan type : Progressive
Bits/(Pixel*Frame) : 0.096
Stream size : 797 MiB (96%)
Default : Yes
Forced : No
Color range : Limited
Color primaries : BT.709
Transfer characteristics : BT.709
Matrix coefficients : BT.709

Audio
ID : 2
Format : AAC
Format/Info : Advanced Audio Codec
Format profile : HE-AAC / LC
Format settings : Explicit
Codec ID : A_AAC-2
Duration : 44 min 36 s
Bit rate : 96.0 kb/s
Channel(s) : 2 channels
Channel positions : Front: L R
Sampling rate : 48.0 kHz / 24.0 kHz
Frame rate : 23.438 FPS (1024 SPF)
Compression mode : Lossy
Delay relative to video : -20 ms
Stream size : 30.2 MiB (4%)
Default : Yes
Forced : No

Text
ID : 3
Format : UTF-8
Codec ID : S_TEXT/UTF8
Codec ID/Info : UTF-8 Plain Text
Duration : 43 min 52 s
Bit rate : 73 b/s
Count of elements : 669
Stream size : 23.5 KiB (0%)
Default : Yes
Forced : No





Father Brown S07E05


Father Brown S07E05


Father Brown S07E05


Father Brown S07E05


Father Brown S07E05

All episodes