Featured TV Shows


Father Brown S07E07

Posted By: Tavaz
SD / WEB-DL IMDb
Father Brown S07E07

Father Brown S07E07
WEB-DL | MKV | 960x540 | English | H264 @ 2775 kbps | AAC @ 96 kbps | 43 min 49 s | 901 MiB
Genre: Drama, Crime, Mystery

Father Brown is based on G. K. Chesterton's detective stories about a Catholic priest who doubles as an amateur detective in order to try and solve mysteries.

32a16dd2cd544c1eab174c59f3c0dbcf.mkv (900.5 MB)



General
Unique ID : 154873037726919373948407188506747357432 (0x7483764BC4F555236B163FBB81BC48F8)
Complete name : ./32a16dd2cd544c1eab174c59f3c0dbcf.mkv
Format : Matroska
Format version : Version 4 / Version 2
File size : 901 MiB
Duration : 43 min 49 s
Overall bit rate : 2 873 kb/s
Encoded date : UTC 2019-01-15 17:03:56
Writing application : mkvmerge v29.0.0 ('Like It Or Not') 64-bit
Writing library : libebml v1.3.6 + libmatroska v1.4.9

Video
ID : 1
Format : AVC
Format/Info : Advanced Video Codec
Format profile : High@L3.1
Format settings : CABAC / 4 Ref Frames
Format settings, CABAC : Yes
Format settings, RefFrames : 4 frames
Codec ID : V_MPEG4/ISO/AVC
Duration : 43 min 49 s
Bit rate : 2 775 kb/s
Width : 960 pixels
Height : 540 pixels
Display aspect ratio : 16:9
Frame rate mode : Constant
Frame rate : 50.000 FPS
Color space : YUV
Chroma subsampling : 4:2:0
Bit depth : 8 bits
Scan type : Progressive
Bits/(Pixel*Frame) : 0.107
Stream size : 870 MiB (97%)
Default : Yes
Forced : No
Color range : Limited
Color primaries : BT.709
Transfer characteristics : BT.709
Matrix coefficients : BT.709

Audio
ID : 2
Format : AAC
Format/Info : Advanced Audio Codec
Format profile : HE-AAC / LC
Format settings : Explicit
Codec ID : A_AAC-2
Duration : 43 min 49 s
Bit rate : 96.0 kb/s
Channel(s) : 2 channels
Channel positions : Front: L R
Sampling rate : 48.0 kHz / 24.0 kHz
Frame rate : 23.438 FPS (1024 SPF)
Compression mode : Lossy
Delay relative to video : -20 ms
Stream size : 29.7 MiB (3%)
Default : Yes
Forced : No

Text
ID : 3
Format : UTF-8
Codec ID : S_TEXT/UTF8
Codec ID/Info : UTF-8 Plain Text
Duration : 42 min 49 s
Bit rate : 63 b/s
Count of elements : 531
Stream size : 20.0 KiB (0%)
Default : Yes
Forced : No





Father Brown S07E07


Father Brown S07E07


Father Brown S07E07


Father Brown S07E07


Father Brown S07E07

All episodes