Featured TV Shows


Fear the Walking Dead S03E12

Posted By: Tavaz
SD / BDRip IMDb
Fear the Walking Dead S03E12

Fear the Walking Dead S03E12
BDRip | MKV | 1024x576 | English | H264 @ 2402 kbps | AC-3 @ 448 kbps | 41 min 31 s | 847 MiB
Subtitles: English
Genre: Drama, Horror

What did the world look like as it was transforming into the horrifying apocalypse depicted in "The Walking Dead"? This spin-off set in Los Angeles, following new characters as they face the beginning of the end of the world, will answer that question.

b46cde12ac6f49e5a757021e96319f01.mkv (846.9 MB)



General
Unique ID : 24964229955699654362900531290466882625 (0x12C7EF90A7EE4874BFBE1BB8C08F1441)
Complete name : ./b46cde12ac6f49e5a757021e96319f01.mkv
Format : Matroska
Format version : Version 4 / Version 2
File size : 847 MiB
Duration : 41 min 31 s
Overall bit rate : 2 852 kb/s
Encoded date : UTC 2018-10-18 12:42:25
Writing application : mkvmerge v27.0.0 ('Metropolis') 64-bit
Writing library : libebml v1.3.6 + libmatroska v1.4.9

Video
ID : 1
Format : AVC
Format/Info : Advanced Video Codec
Format profile : High@L4.1
Format settings : CABAC / 14 Ref Frames
Format settings, CABAC : Yes
Format settings, RefFrames : 14 frames
Codec ID : V_MPEG4/ISO/AVC
Duration : 41 min 31 s
Bit rate : 2 402 kb/s
Width : 1 024 pixels
Height : 576 pixels
Display aspect ratio : 16:9
Frame rate mode : Constant
Frame rate : 23.976 (24000/1001) FPS
Color space : YUV
Chroma subsampling : 4:2:0
Bit depth : 8 bits
Scan type : Progressive
Bits/(Pixel*Frame) : 0.170
Stream size : 713 MiB (84%)
Writing library : x264 core 157 r2932 303c484
Encoding settings : cabac=1 / ref=14 / deblock=1:-3:-3 / analyse=0x3:0x133 / me=umh / subme=11 / psy=1 / psy_rd=1.00:0.15 / mixed_ref=1 / me_range=32 / chroma_me=1 / trellis=2 / 8x8dct=1 / cqm=0 / deadzone=21,11 / fast_pskip=0 / chroma_qp_offset=-3 / threads=6 / lookahead_threads=1 / sliced_threads=0 / nr=0 / decimate=0 / interlaced=0 / bluray_compat=0 / constrained_intra=0 / bframes=16 / b_pyramid=2 / b_adapt=2 / b_bias=0 / direct=3 / weightb=1 / open_gop=0 / weightp=2 / keyint=250 / keyint_min=23 / scenecut=40 / intra_refresh=0 / rc_lookahead=250 / rc=crf / mbtree=0 / crf=18.0 / qcomp=0.60 / qpmin=0 / qpmax=69 / qpstep=4 / vbv_maxrate=62500 / vbv_bufsize=78125 / crf_max=0.0 / nal_hrd=none / filler=0 / ip_ratio=1.40 / pb_ratio=1.30 / aq=3:0.80
Language : English
Default : Yes
Forced : No
Color range : Limited
Matrix coefficients : BT.709

Audio
ID : 2
Format : AC-3
Format/Info : Audio Coding 3
Format settings, Endianness : Big
Codec ID : A_AC3
Duration : 41 min 31 s
Bit rate mode : Constant
Bit rate : 448 kb/s
Channel(s) : 6 channels
Channel positions : Front: L C R, Side: L R, LFE
Sampling rate : 48.0 kHz
Frame rate : 31.250 FPS (1536 SPF)
Bit depth : 16 bits
Compression mode : Lossy
Stream size : 133 MiB (16%)
Language : English
Service kind : Complete Main
Default : Yes
Forced : No

Text
ID : 3
Format : UTF-8
Codec ID : S_TEXT/UTF8
Codec ID/Info : UTF-8 Plain Text
Duration : 33 min 40 s
Bit rate : 47 b/s
Count of elements : 411
Stream size : 11.8 KiB (0%)
Language : English
Default : No
Forced : No





Fear the Walking Dead S03E12


Fear the Walking Dead S03E12


Fear the Walking Dead S03E12


Fear the Walking Dead S03E12


Fear the Walking Dead S03E12

All episodes