Fear the Walking Dead S04E08

Posted By: Tavaz
1080p (FullHD) / HDTV IMDb
Fear the Walking Dead S04E08

Fear the Walking Dead S04E08
HDTV | MKV | 1920x1080 | Spanish | H264 @ 3703 kbps | MPEG Audio @ 192 kbps | 43 min 59 s | 1.20 GiB
Genre: Drama, Terror

'Fear The Walking Dead', el esperado spin-off de 'The Walking Dead', es una serie dramática que explora el inicio del apocalipsis desde el punto de vista de una familia desestructurada: Sean Cabrera, profesor divorciado consejero de orientación femenina, y sus dos hijos. De la ciudad nace un brote de algo misterioso que amenaza la estabilidad de Madison Clark y Travis Manawa. La presión de sacar adelante dos familias queda en un segundo plano cuando la sociedad comienza a desmoronarse. Deberán adaptarse y sobrevivir a la vez que aceptan las historias más oscuras.

Fear.The.Walking.Dead.S04E08.SPANiSH.1080p.HDTV.x264-4FiRE.mkv (1.2 GB)
fear.the.walking.dead.s04e08.1080p.spanish.hdtv.x264-4fire.sample.mkv (24.3 MB)



General
Unique ID : 306390527734715794587982067336606926046 (0xE680AB50F58FA03267798897018444DE)
Complete name : ./Fear.The.Walking.Dead.S04E08.SPANiSH.1080p.HDTV.x264-4FiRE.mkv
Format : Matroska
Format version : Version 4 / Version 2
File size : 1.20 GiB
Duration : 43 min 59 s
Overall bit rate : 3 897 kb/s
Encoded date : UTC 2018-06-12 18:26:39
Writing application : mkvmerge v23.0.0 ('The Bride Said No') 64-bit
Writing library : libebml v1.3.6 + libmatroska v1.4.9

Video
ID : 1
Format : AVC
Format/Info : Advanced Video Codec
Format profile : High@L4.1
Format settings : CABAC / 4 Ref Frames
Format settings, CABAC : Yes
Format settings, RefFrames : 4 frames
Codec ID : V_MPEG4/ISO/AVC
Duration : 43 min 59 s
Bit rate : 3 703 kb/s
Width : 1 920 pixels
Height : 1 080 pixels
Display aspect ratio : 16:9
Frame rate mode : Constant
Frame rate : 25.000 FPS
Color space : YUV
Chroma subsampling : 4:2:0
Bit depth : 8 bits
Scan type : Progressive
Bits/(Pixel*Frame) : 0.071
Stream size : 1.14 GiB (95%)
Title : Video By 4FiRE.TEAM
Writing library : x264 core 155 r2901 7d0ff22
Encoding settings : cabac=1 / ref=4 / deblock=1:-2:-2 / analyse=0x3:0x113 / me=hex / subme=8 / psy=1 / psy_rd=1.00:0.00 / mixed_ref=1 / me_range=16 / chroma_me=1 / trellis=2 / 8x8dct=1 / cqm=0 / deadzone=21,11 / fast_pskip=1 / chroma_qp_offset=-2 / threads=12 / lookahead_threads=2 / sliced_threads=0 / nr=0 / decimate=1 / interlaced=0 / bluray_compat=0 / constrained_intra=0 / bframes=3 / b_pyramid=2 / b_adapt=2 / b_bias=0 / direct=3 / weightb=1 / open_gop=0 / weightp=2 / keyint=250 / keyint_min=25 / scenecut=40 / intra_refresh=0 / rc_lookahead=50 / rc=crf / mbtree=1 / crf=17.0 / qcomp=0.60 / qpmin=0 / qpmax=69 / qpstep=4 / ip_ratio=1.40 / aq=1:1.00
Language : English
Default : Yes
Forced : No

Audio
ID : 2
Format : MPEG Audio
Format version : Version 1
Format profile : Layer 2
Codec ID : A_MPEG/L2
Codec ID/Hint : MP2
Duration : 43 min 59 s
Bit rate mode : Constant
Bit rate : 192 kb/s
Channel(s) : 2 channels
Sampling rate : 48.0 kHz
Frame rate : 41.667 FPS (1152 SPF)
Compression mode : Lossy
Stream size : 60.4 MiB (5%)
Language : Spanish
Default : Yes
Forced : No





Fear the Walking Dead S04E08


Fear the Walking Dead S04E08


Fear the Walking Dead S04E08


Fear the Walking Dead S04E08


Fear the Walking Dead S04E08

All episodes