Featured TV Shows


Fear the Walking Dead S04E12

Posted By: Tavaz
720p (HD) / WEBRip IMDb
Fear the Walking Dead S04E12

Fear the Walking Dead S04E12
WEBRip | MKV | 1280x720 | English | H264 @ 2432 kbps | AAC @ 93 kbps | 44 min 39 s | 801 MiB
Genre: Drama, Horror

What did the world look like as it was transforming into the horrifying apocalypse depicted in "The Walking Dead"? This spin-off set in Los Angeles, following new characters as they face the beginning of the end of the world, will answer that question.

792d8a190cfa4d7bb86831196e371b67.mkv (800.7 MB)



General
Unique ID : 325082655571784591366858669191536681522 (0xF490A45F22D9B180C1466E2F1975A232)
Complete name : ./792d8a190cfa4d7bb86831196e371b67.mkv
Format : Matroska
Format version : Version 4 / Version 2
File size : 801 MiB
Duration : 44 min 39 s
Overall bit rate : 2 507 kb/s
Encoded date : UTC 2018-09-03 02:14:36
Writing application : mkvmerge v22.0.0 ('At The End Of The World') 64-bit
Writing library : libebml v1.3.5 + libmatroska v1.4.8

Video
ID : 1
Format : AVC
Format/Info : Advanced Video Codec
Format profile : Main@L3.1
Format settings : CABAC / 3 Ref Frames
Format settings, CABAC : Yes
Format settings, RefFrames : 3 frames
Codec ID : V_MPEG4/ISO/AVC
Duration : 44 min 39 s
Bit rate mode : Constant
Bit rate : 2 432 kb/s
Width : 1 280 pixels
Height : 720 pixels
Display aspect ratio : 16:9
Frame rate mode : Constant
Frame rate : 29.970 (30000/1001) FPS
Color space : YUV
Chroma subsampling : 4:2:0
Bit depth : 8 bits
Scan type : Progressive
Bits/(Pixel*Frame) : 0.088
Stream size : 770 MiB (96%)
Default : Yes
Forced : No

Audio
ID : 2
Format : AAC
Format/Info : Advanced Audio Codec
Format profile : LC
Codec ID : A_AAC-2
Duration : 44 min 39 s
Bit rate : 93.7 kb/s
Channel(s) : 2 channels
Channel positions : Front: L R
Sampling rate : 44.1 kHz
Frame rate : 43.066 FPS (1024 SPF)
Compression mode : Lossy
Delay relative to video : -33 ms
Stream size : 29.9 MiB (4%)
Default : Yes
Forced : No





Fear the Walking Dead S04E12


Fear the Walking Dead S04E12


Fear the Walking Dead S04E12


Fear the Walking Dead S04E12


Fear the Walking Dead S04E12

All episodes