Featured TV Shows


Fear the Walking Dead S05E12

Posted By: Tavaz
720p (HD) / WEBRip IMDb
Fear the Walking Dead S05E12

Fear the Walking Dead S05E12
WEB-DL | MKV | 1280x720 | German / English | H264 @ 5114 kbps | E-AC-3 @ 640 kbps | 41 min 55 s | 1.91 GiB
Subtitles: German, English
Genre: Drama, Horror


Das offizielle Spin-off zu "The Walking Dead" ist in Los Angeles angesiedelt und erzählt mit neuen Figuren neue Geschichten im selben Serienuniversum.

S05E12 German HD.mkv (1.9 GB)



General
Unique ID : 134073454960264037312919027617443432584 (0x64DD9BB0BCABF91EB40032686B7D4888)
Complete name : ./Patchworkfamilie S05E12 GermanDL hd/S05E12 German HD.mkv
Format : Matroska
Format version : Version 4 / Version 2
File size : 1.91 GiB
Duration : 41 min 55 s
Overall bit rate : 6 525 kb/s
Writing application : mkvmerge v33.1.0 ('Primrose') 64-bit
Writing library : libebml v1.3.7 + libmatroska v1.5.0

Video
ID : 1
Format : AVC
Format/Info : Advanced Video Codec
Format profile : High@L3.1
Format settings : CABAC / 4 Ref Frames
Format settings, CABAC : Yes
Format settings, RefFrames : 4 frames
Codec ID : V_MPEG4/ISO/AVC
Duration : 41 min 55 s
Bit rate mode : Constant
Bit rate : 5 115 kb/s
Nominal bit rate : 6 000 kb/s
Width : 1 280 pixels
Height : 720 pixels
Display aspect ratio : 16:9
Frame rate mode : Constant
Frame rate : 23.976 (24000/1001) FPS
Color space : YUV
Chroma subsampling : 4:2:0
Bit depth : 8 bits
Scan type : Progressive
Bits/(Pixel*Frame) : 0.231
Stream size : 1.50 GiB (78%)
Default : Yes
Forced : No
Color range : Limited
Color primaries : BT.709
Transfer characteristics : BT.709
Matrix coefficients : BT.709

Audio #1
ID : 2
Format : E-AC-3
Format/Info : Enhanced Audio Coding 3
Format settings, Endianness : Big
Codec ID : A_EAC3
Duration : 41 min 55 s
Bit rate mode : Constant
Bit rate : 640 kb/s
Channel(s) : 6 channels
Channel positions : Front: L C R, Side: L R, LFE
Sampling rate : 48.0 kHz
Frame rate : 187.500 FPS (256 SPF)
Compression mode : Lossy
Stream size : 192 MiB (10%)
Title : Deutsch
Language : German
Service kind : Complete Main
Default : Yes
Forced : No

Audio #2
ID : 3
Format : E-AC-3
Format/Info : Enhanced Audio Coding 3
Format settings, Endianness : Big
Codec ID : A_EAC3
Duration : 41 min 55 s
Bit rate mode : Constant
Bit rate : 640 kb/s
Channel(s) : 6 channels
Channel positions : Front: L C R, Side: L R, LFE
Sampling rate : 48.0 kHz
Frame rate : 187.500 FPS (256 SPF)
Compression mode : Lossy
Stream size : 192 MiB (10%)
Title : English
Language : English
Service kind : Complete Main
Default : No
Forced : No

Text #1
ID : 4
Format : UTF-8
Codec ID : S_TEXT/UTF8
Codec ID/Info : UTF-8 Plain Text
Title : Deutsch
Language : German
Default : No
Forced : No

Text #2
ID : 5
Format : UTF-8
Codec ID : S_TEXT/UTF8
Codec ID/Info : UTF-8 Plain Text
Title : English
Language : English
Default : No
Forced : No





Fear the Walking Dead S05E12


Fear the Walking Dead S05E12


Fear the Walking Dead S05E12


Fear the Walking Dead S05E12


Fear the Walking Dead S05E12

All episodes