Featured TV Shows


Fear the Walking Dead S05E12

Posted By: Tavaz
720p (HD) / WEBRip IMDb
Fear the Walking Dead S05E12

Fear the Walking Dead S05E12
WEBRip | MKV | 1280x720 | French / English | H264 @ 3400 kbps | AAC @ 128 kbps | 40 min 23 s | 1.01 GiB
Subtitles: French
Genre: Drama, Horror


What did the world look like as it was transforming into the horrifying apocalypse depicted in "The Walking Dead"? This spin-off set in Los Angeles, following new characters as they face the beginning of the end of the world, will answer that question.

afcf32faa1c146b594d988f1e23ff426.mkv (1.0 GB)



General
Unique ID : 81499603414149427467630124172364245506 (0x3D5040AECA80F2F504DBA17DF7746A02)
Complete name : ./afcf32faa1c146b594d988f1e23ff426.mkv
Format : Matroska
Format version : Version 4 / Version 2
File size : 1.01 GiB
Duration : 40 min 23 s
Overall bit rate : 3 571 kb/s
Encoded date : UTC 2019-09-02 01:42:01
Writing application : mkvmerge v37.0.0 ('Leave It') 64-bit
Writing library : libebml v1.3.9 + libmatroska v1.5.2

Video
ID : 1
Format : AVC
Format/Info : Advanced Video Codec
Format profile : High@L3.1
Format settings : CABAC / 2 Ref Frames
Format settings, CABAC : Yes
Format settings, RefFrames : 2 frames
Format settings, GOP : M=1, N=50
Codec ID : V_MPEG4/ISO/AVC
Duration : 40 min 13 s
Bit rate mode : Constant
Bit rate : 3 400 kb/s
Width : 1 280 pixels
Height : 720 pixels
Display aspect ratio : 16:9
Frame rate mode : Constant
Frame rate : 25.000 FPS
Color space : YUV
Chroma subsampling : 4:2:0
Bit depth : 8 bits
Scan type : Progressive
Bits/(Pixel*Frame) : 0.148
Stream size : 957 MiB (93%)
Default : Yes
Forced : No
Color range : Limited
Color primaries : BT.709
Transfer characteristics : BT.709
Matrix coefficients : BT.709

Audio #1
ID : 2
Format : AAC
Format/Info : Advanced Audio Codec
Format profile : LC
Codec ID : A_AAC-2
Duration : 40 min 13 s
Bit rate : 128 kb/s
Channel(s) : 2 channels
Channel positions : Front: L R
Sampling rate : 48.0 kHz
Frame rate : 46.875 FPS (1024 SPF)
Compression mode : Lossy
Stream size : 36.8 MiB (4%)
Title : French
Language : French
Default : Yes
Forced : No

Audio #2
ID : 3
Format : AAC
Format/Info : Advanced Audio Codec
Format profile : LC
Codec ID : A_AAC-2
Duration : 40 min 13 s
Bit rate : 128 kb/s
Channel(s) : 2 channels
Channel positions : Front: L R
Sampling rate : 48.0 kHz
Frame rate : 46.875 FPS (1024 SPF)
Compression mode : Lossy
Stream size : 36.8 MiB (4%)
Title : English
Language : English
Default : No
Forced : No

Text
ID : 4
Format : UTF-8
Codec ID : S_TEXT/UTF8
Codec ID/Info : UTF-8 Plain Text
Duration : 39 min 35 s
Bit rate : 39 b/s
Count of elements : 416
Stream size : 11.5 KiB (0%)
Title : French
Language : French
Default : No
Forced : No





Fear the Walking Dead S05E12


Fear the Walking Dead S05E12


Fear the Walking Dead S05E12


Fear the Walking Dead S05E12


Fear the Walking Dead S05E12

All episodes