Featured TV Shows


Fear the Walking Dead S03E06

Posted By: Tavaz
720p (HD) / BDRip IMDb
Fear the Walking Dead S03E06

Fear the Walking Dead S03E06
BDRip | MKV | 1280x720 | English | H264 @ 5754 kbps | DTS @ 1509 kbps | 43 min 1 s | 2.18 GiB
Subtitles: English
Genre: Drama


What did the world look like as it was transforming into the horrifying apocalypse depicted in "The Walking Dead"? This spin-off set in Los Angeles, following new characters as they face the beginning of the end of the world, will answer that question.

59ef962bc98a55dd2a343f5ce968fbf2.mkv (2.2 GB)



General
Unique ID : 0 (0x0)
Complete name : ./59ef962bc98a55dd2a343f5ce968fbf2.mkv
Format : Matroska
Format version : Version 4 / Version 2
File size : 2.18 GiB
Duration : 43 min 1 s
Overall bit rate : 7 262 kb/s
Encoded date : UTC 2010-02-22 21:41:29
Writing application : no_variable_data
Writing library : no_variable_data

Video
ID : 1
Format : AVC
Format/Info : Advanced Video Codec
Format profile : High@L4.1
Format settings : CABAC / 5 Ref Frames
Format settings, CABAC : Yes
Format settings, RefFrames : 5 frames
Codec ID : V_MPEG4/ISO/AVC
Duration : 43 min 1 s
Bit rate : 5 754 kb/s
Width : 1 280 pixels
Height : 720 pixels
Display aspect ratio : 16:9
Frame rate mode : Constant
Frame rate : 23.976 (24000/1001) FPS
Color space : YUV
Chroma subsampling : 4:2:0
Bit depth : 8 bits
Scan type : Progressive
Bits/(Pixel*Frame) : 0.260
Stream size : 1.69 GiB (77%)
Writing library : x264 core 152 r2851 ba24899
Encoding settings : cabac=1 / ref=5 / deblock=1:-3:-3 / analyse=0x3:0x113 / me=umh / subme=8 / psy=1 / psy_rd=1.00:0.00 / mixed_ref=1 / me_range=24 / chroma_me=1 / trellis=1 / 8x8dct=1 / cqm=0 / deadzone=21,11 / fast_pskip=0 / chroma_qp_offset=-2 / threads=18 / lookahead_threads=3 / sliced_threads=0 / nr=0 / decimate=1 / interlaced=0 / bluray_compat=0 / constrained_intra=0 / bframes=3 / b_pyramid=2 / b_adapt=2 / b_bias=0 / direct=3 / weightb=1 / open_gop=0 / weightp=2 / keyint=240 / keyint_min=24 / scenecut=40 / intra_refresh=0 / rc_lookahead=50 / rc=2pass / mbtree=1 / bitrate=5754 / ratetol=1.0 / qcomp=0.60 / qpmin=0 / qpmax=69 / qpstep=4 / cplxblur=20.0 / qblur=0.5 / ip_ratio=1.40 / aq=3:0.80
Default : Yes
Forced : No
Statistics Tags Issue : no_variable_data 1970-01-01 00:00:00 / no_variable_data 2010-02-22 21:41:29
FromStats_BitRate : 5750673
FromStats_Duration : 00:43:01.037000000
FromStats_FrameCount : 61883
FromStats_StreamSize : 1855337627

Audio
ID : 2
Format : DTS
Format/Info : Digital Theater Systems
Mode : 16
Format settings, Endianness : Big
Codec ID : A_DTS
Duration : 43 min 1 s
Bit rate mode : Constant
Bit rate : 1 509 kb/s
Channel(s) : 6 channels
Channel positions : Front: L C R, Side: L R, LFE
Sampling rate : 48.0 kHz
Frame rate : 93.750 FPS (512 SPF)
Bit depth : 24 bits
Compression mode : Lossy
Stream size : 464 MiB (21%)
Language : English
Default : Yes
Forced : No
Statistics Tags Issue : no_variable_data 1970-01-01 00:00:00 / no_variable_data 2010-02-22 21:41:29
FromStats_BitRate : 1508999
FromStats_Duration : 00:43:01.046000000
FromStats_FrameCount : 241973
FromStats_StreamSize : 486849676

Text #1
ID : 3
Format : UTF-8
Codec ID : S_TEXT/UTF8
Codec ID/Info : UTF-8 Plain Text
Language : English
Default : No
Forced : No
Statistics Tags Issue : no_variable_data 1970-01-01 00:00:00 / no_variable_data 2010-02-22 21:41:29
FromStats_BitRate : 56
FromStats_Duration : 00:42:03.062000000
FromStats_FrameCount : 607
FromStats_StreamSize : 17930

Text #2
ID : 4
Format : UTF-8
Codec ID : S_TEXT/UTF8
Codec ID/Info : UTF-8 Plain Text
Title : SDH
Language : English
Default : No
Forced : No
Statistics Tags Issue : no_variable_data 1970-01-01 00:00:00 / no_variable_data 2010-02-22 21:41:29
FromStats_BitRate : 64
FromStats_Duration : 00:42:23.374000000
FromStats_FrameCount : 690
FromStats_StreamSize : 20461

Menu
00:00:00.000 : en:00:00:00.000
00:07:09.679 : en:00:07:09.679
00:12:45.974 : en:00:12:45.974
00:19:41.972 : en:00:19:41.972
00:28:08.395 : en:00:28:08.395
00:38:49.035 : en:00:38:49.035





Fear the Walking Dead S03E06


Fear the Walking Dead S03E06


Fear the Walking Dead S03E06


Fear the Walking Dead S03E06


Fear the Walking Dead S03E06

All episodes