Featured TV Shows


Fear the Walking Dead S04E04

Posted By: Tavaz
SD / HDTV IMDb
Fear the Walking Dead S04E04

Fear the Walking Dead S04E04
HDTV | MKV | 720x404 | English | H264 @ 717 kbps | AAC @ 128 kbps | 46 min 18 s | 281 MiB
Genre: Drama, Horror

What did the world look like as it was transforming into the horrifying apocalypse depicted in "The Walking Dead"? This spin-off set in Los Angeles, following new characters as they face the beginning of the end of the world, will answer that question.

53bdea3501674e6a8c9ac0a4f0a172e5.mkv (281.0 MB)



General
Unique ID : 267785263107322508337753865591910204957 (0xC97590D0F47CB72E3CA673435856861D)
Complete name : ./53bdea3501674e6a8c9ac0a4f0a172e5.mkv
Format : Matroska
Format version : Version 4 / Version 2
File size : 281 MiB
Duration : 46 min 18 s
Overall bit rate : 848 kb/s
Encoded date : UTC 2018-05-07 02:12:24
Writing application : mkvmerge v8.8.0 ('Wind at my back') 64bit
Writing library : libebml v1.3.3 + libmatroska v1.4.4

Video
ID : 1
Format : AVC
Format/Info : Advanced Video Codec
Format profile : High@L3.1
Format settings : CABAC / 5 Ref Frames
Format settings, CABAC : Yes
Format settings, RefFrames : 5 frames
Codec ID : V_MPEG4/ISO/AVC
Duration : 46 min 18 s
Bit rate : 718 kb/s
Width : 720 pixels
Height : 404 pixels
Display aspect ratio : 16:9
Frame rate mode : Constant
Frame rate : 23.976 (24000/1001) FPS
Color space : YUV
Chroma subsampling : 4:2:0
Bit depth : 8 bits
Scan type : Progressive
Bits/(Pixel*Frame) : 0.103
Stream size : 238 MiB (85%)
Writing library : x264 core 155 r2901 7d0ff22
Encoding settings : cabac=1 / ref=5 / deblock=1:0:0 / analyse=0x3:0x113 / me=hex / subme=8 / psy=1 / psy_rd=1.00:0.00 / mixed_ref=1 / me_range=16 / chroma_me=1 / trellis=2 / 8x8dct=1 / cqm=0 / deadzone=21,11 / fast_pskip=1 / chroma_qp_offset=-2 / threads=13 / lookahead_threads=2 / sliced_threads=0 / nr=0 / decimate=1 / interlaced=0 / bluray_compat=0 / constrained_intra=0 / bframes=3 / b_pyramid=2 / b_adapt=1 / b_bias=0 / direct=3 / weightb=1 / open_gop=0 / weightp=2 / keyint=250 / keyint_min=23 / scenecut=40 / intra_refresh=0 / rc_lookahead=50 / rc=crf / mbtree=1 / crf=19.0 / qcomp=0.60 / qpmin=0 / qpmax=69 / qpstep=4 / ip_ratio=1.40 / aq=1:1.00
Default : Yes
Forced : No
Color range : Limited
Matrix coefficients : BT.709

Audio
ID : 2
Format : AAC
Format/Info : Advanced Audio Codec
Format profile : LC
Codec ID : A_AAC-2
Duration : 46 min 18 s
Bit rate : 129 kb/s
Channel(s) : 2 channels
Channel positions : Front: L R
Sampling rate : 48.0 kHz
Frame rate : 46.875 FPS (1024 SPF)
Compression mode : Lossy
Delay relative to video : 20 ms
Stream size : 42.6 MiB (15%)
Default : Yes
Forced : No





Fear the Walking Dead S04E04


Fear the Walking Dead S04E04


Fear the Walking Dead S04E04


Fear the Walking Dead S04E04


Fear the Walking Dead S04E04

All episodes