Featured TV Shows


Fear the Walking Dead S04E05

Posted By: Tavaz
1080p (FullHD) / WEBRip IMDb
Fear the Walking Dead S04E05

Fear the Walking Dead S04E05
WEBRip | MKV | 1920x1080 | English | H264 @ 8736 kbps | E-AC-3 @ 640 kbps | 46 min 5 s | 3.08 GiB
Subtitles: English
Genre: Drama, Horror

What did the world look like as it was transforming into the horrifying apocalypse depicted in "The Walking Dead"? This spin-off set in Los Angeles, following new characters as they face the beginning of the end of the world, will answer that question.

fe67a05e10754302af5ddedc477a4d4d.mkv (3.1 GB)



General
Unique ID : 125610577605835524989423816969115871801 (0x5E7FB79F499EA666B54C88FDBDC32A39)
Complete name : ./fe67a05e10754302af5ddedc477a4d4d.mkv
Format : Matroska
Format version : Version 4 / Version 2
File size : 3.08 GiB
Duration : 46 min 5 s
Overall bit rate mode : Variable
Overall bit rate : 9 567 kb/s
Encoded date : UTC 2018-05-14 00:04:05
Writing application : mkvmerge v20.0.0 (master: 2421163 / deflate: b81f064) [X86_64]
Writing library : libebml v1.3.5 + libmatroska v1.4.8

Video
ID : 1
Format : AVC
Format/Info : Advanced Video Codec
Format profile : High@L4
Format settings : CABAC / 4 Ref Frames
Format settings, CABAC : Yes
Format settings, RefFrames : 4 frames
Codec ID : V_MPEG4/ISO/AVC
Duration : 46 min 5 s
Bit rate mode : Variable
Bit rate : 8 736 kb/s
Maximum bit rate : 15.0 Mb/s
Width : 1 920 pixels
Height : 1 080 pixels
Display aspect ratio : 16:9
Frame rate mode : Constant
Frame rate : 23.976 (24000/1001) FPS
Color space : YUV
Chroma subsampling : 4:2:0
Bit depth : 8 bits
Scan type : Progressive
Bits/(Pixel*Frame) : 0.176
Stream size : 2.81 GiB (91%)
Language : English
Default : Yes
Forced : No
Color range : Limited
Color primaries : BT.709
Transfer characteristics : BT.709
Matrix coefficients : BT.709

Audio
ID : 2
Format : E-AC-3
Format/Info : Enhanced Audio Coding 3
Format settings, Endianness : Big
Codec ID : A_EAC3
Duration : 46 min 5 s
Bit rate mode : Constant
Bit rate : 640 kb/s
Channel(s) : 6 channels
Channel positions : Front: L C R, Side: L R, LFE
Sampling rate : 48.0 kHz
Frame rate : 187.500 FPS (256 SPF)
Compression mode : Lossy
Stream size : 211 MiB (7%)
Language : English
Service kind : Complete Main
Default : Yes
Forced : No

Text #1
ID : 3
Format : UTF-8
Codec ID : S_TEXT/UTF8
Codec ID/Info : UTF-8 Plain Text
Title : English
Language : English
Default : No
Forced : No

Text #2
ID : 4
Format : UTF-8
Codec ID : S_TEXT/UTF8
Codec ID/Info : UTF-8 Plain Text
Title : English (SDH)
Language : English
Default : No
Forced : No

Menu
00:00:00.000 : en:John goes about his day
00:01:21.000 : en:Title Sequence
00:01:37.000 : en:John goes through another day
00:07:29.000 : en:Laura tries to leave
00:15:34.000 : en:More dead wash up
00:19:46.000 : en:John and Laura go into town
00:23:21.000 : en:Movie night
00:25:50.000 : en:Laura learns to fish
00:29:50.000 : en:Laura takes a gun
00:32:27.000 : en:Fastest guns in the west
00:38:37.000 : en:Scrabble Letters
00:42:55.000 : en:Waiting is how you lose people
00:45:27.000 : en:End Credits





Fear the Walking Dead S04E05


Fear the Walking Dead S04E05


Fear the Walking Dead S04E05


Fear the Walking Dead S04E05


Fear the Walking Dead S04E05

All episodes