Featured TV Shows


Fear the Walking Dead S05E02

Posted By: Tavaz
1080p (FullHD) / WEBRip IMDb
Fear the Walking Dead S05E02

Fear the Walking Dead S05E02
WEBRip | MKV | 1920x1080 | English | H264 @ 5000 kbps | AAC @ 124 kbps | 41 min 35 s | 1.48 GiB
Genre: Drama, Horror


What did the world look like as it was transforming into the horrifying apocalypse depicted in "The Walking Dead"? This spin-off set in Los Angeles, following new characters as they face the beginning of the end of the world, will answer that question.

b9df24c1c907442f832d09bebe883165.mkv (1.5 GB)



General
Unique ID : 327155759046574836493693279009366417818 (0xF61FE843AD0C7F9DC2788D7CC799219A)
Complete name : ./b9df24c1c907442f832d09bebe883165.mkv
Format : Matroska
Format version : Version 4 / Version 2
File size : 1.48 GiB
Duration : 41 min 35 s
Overall bit rate : 5 104 kb/s
Encoded date : UTC 2019-06-08 04:06:34
Writing application : mkvmerge v24.0.0 ('Beyond The Pale') 64-bit
Writing library : libebml v1.3.6 + libmatroska v1.4.9

Video
ID : 1
Format : AVC
Format/Info : Advanced Video Codec
Format profile : High@L4
Format settings : CABAC / 3 Ref Frames
Format settings, CABAC : Yes
Format settings, RefFrames : 3 frames
Codec ID : V_MPEG4/ISO/AVC
Duration : 41 min 35 s
Bit rate mode : Constant
Bit rate : 5 000 kb/s
Width : 1 920 pixels
Height : 1 080 pixels
Display aspect ratio : 16:9
Frame rate mode : Variable
Frame rate : 23.865 FPS
Original frame rate : 23.976 (24000/1001) FPS
Color space : YUV
Chroma subsampling : 4:2:0
Bit depth : 8 bits
Scan type : Progressive
Bits/(Pixel*Frame) : 0.101
Stream size : 1.45 GiB (98%)
Default : Yes
Forced : No

Audio
ID : 2
Format : AAC
Format/Info : Advanced Audio Codec
Format profile : LC
Codec ID : A_AAC-2
Duration : 41 min 35 s
Bit rate : 125 kb/s
Channel(s) : 2 channels
Channel positions : Front: L R
Sampling rate : 44.1 kHz
Frame rate : 43.066 FPS (1024 SPF)
Compression mode : Lossy
Delay relative to video : 3 ms
Stream size : 37.2 MiB (2%)
Default : Yes
Forced : No





Fear the Walking Dead S05E02


Fear the Walking Dead S05E02


Fear the Walking Dead S05E02


Fear the Walking Dead S05E02


Fear the Walking Dead S05E02

All episodes