Featured TV Shows


Fear the Walking Dead S05E05

Posted By: Tavaz
1080p (FullHD) / WEBRip IMDb
Fear the Walking Dead S05E05

Fear the Walking Dead S05E05
WEBRip | MKV | 1920x1080 | English | H264 @ 5000 kbps | AAC @ 125 kbps | 47 min 39 s | 1.71 GiB
Genre: Drama, Horror


What did the world look like as it was transforming into the horrifying apocalypse depicted in "The Walking Dead"? This spin-off set in Los Angeles, following new characters as they face the beginning of the end of the world, will answer that question.

fear.the.walking.dead.s05e05.1080p.web.h264-tbs.mkv (1.7 GB)



General
Unique ID : 144959122405083879236149043155089718560 (0x6D0E1C88540A99FF6033D07A2DE37D20)
Complete name : ./fear.the.walking.dead.s05e05.1080p.web.h264-tbs.mkv
Format : Matroska
Format version : Version 4 / Version 2
File size : 1.71 GiB
Duration : 47 min 39 s
Overall bit rate : 5 123 kb/s
Encoded date : UTC 2019-07-01 02:22:51
Writing application : mkvmerge v24.0.0 ('Beyond The Pale') 64-bit
Writing library : libebml v1.3.6 + libmatroska v1.4.9

Video
ID : 1
Format : AVC
Format/Info : Advanced Video Codec
Format profile : High@L4
Format settings : CABAC / 3 Ref Frames
Format settings, CABAC : Yes
Format settings, RefFrames : 3 frames
Codec ID : V_MPEG4/ISO/AVC
Duration : 47 min 39 s
Bit rate mode : Constant
Bit rate : 5 000 kb/s
Width : 1 920 pixels
Height : 1 080 pixels
Display aspect ratio : 16:9
Frame rate mode : Constant
Frame rate : 23.976 (24000/1001) FPS
Color space : YUV
Chroma subsampling : 4:2:0
Bit depth : 8 bits
Scan type : Progressive
Bits/(Pixel*Frame) : 0.101
Stream size : 1.66 GiB (98%)
Default : Yes
Forced : No

Audio
ID : 2
Format : AAC
Format/Info : Advanced Audio Codec
Format profile : LC
Codec ID : A_AAC-2
Duration : 47 min 39 s
Bit rate : 126 kb/s
Channel(s) : 2 channels
Channel positions : Front: L R
Sampling rate : 44.1 kHz
Frame rate : 43.066 FPS (1024 SPF)
Compression mode : Lossy
Delay relative to video : 3 ms
Stream size : 42.8 MiB (2%)
Default : Yes
Forced : No





Fear the Walking Dead S05E05


Fear the Walking Dead S05E05


Fear the Walking Dead S05E05


Fear the Walking Dead S05E05


Fear the Walking Dead S05E05

All episodes