Featured TV Shows


Fear the Walking Dead S05E12

Posted By: Tavaz
720p (HD) / WEBRip IMDb
Fear the Walking Dead S05E12

Fear the Walking Dead S05E12
WEBRip | MKV | 1280x720 | English | H264 @ 2499 kbps | AAC @ 93 kbps | 43 min 8 s | 799 MiB
Genre: Drama, Horror


What did the world look like as it was transforming into the horrifying apocalypse depicted in "The Walking Dead"? This spin-off set in Los Angeles, following new characters as they face the beginning of the end of the world, will answer that question.

bc9b51a5d78b42ba875aed49f3504fa6.mkv (799.0 MB)



General
Unique ID : 132734478904552185759284000718130094241 (0x63DBBB12EC46682711D1398F1335A0A1)
Complete name : ./bc9b51a5d78b42ba875aed49f3504fa6.mkv
Format : Matroska
Format version : Version 4 / Version 2
File size : 799 MiB
Duration : 43 min 8 s
Overall bit rate : 2 589 kb/s
Encoded date : UTC 2019-08-31 01:30:27
Writing application : mkvmerge v9.8.0 ('Kuglblids') 64bit
Writing library : libebml v1.3.4 + libmatroska v1.4.5

Video
ID : 1
Format : AVC
Format/Info : Advanced Video Codec
Format profile : Main@L3.1
Format settings : CABAC / 3 Ref Frames
Format settings, CABAC : Yes
Format settings, RefFrames : 3 frames
Codec ID : V_MPEG4/ISO/AVC
Duration : 43 min 8 s
Bit rate mode : Constant
Bit rate : 2 500 kb/s
Width : 1 280 pixels
Height : 720 pixels
Display aspect ratio : 16:9
Frame rate mode : Constant
Frame rate : 23.976 (24000/1001) FPS
Color space : YUV
Chroma subsampling : 4:2:0
Bit depth : 8 bits
Scan type : Progressive
Bits/(Pixel*Frame) : 0.113
Stream size : 769 MiB (96%)
Default : Yes
Forced : No

Audio
ID : 2
Format : AAC
Format/Info : Advanced Audio Codec
Format profile : LC
Codec ID : A_AAC-2
Duration : 43 min 8 s
Bit rate : 93.6 kb/s
Channel(s) : 2 channels
Channel positions : Front: L R
Sampling rate : 44.1 kHz
Frame rate : 43.066 FPS (1024 SPF)
Compression mode : Lossy
Delay relative to video : 6 ms
Stream size : 28.9 MiB (4%)
Default : Yes
Forced : No





Fear the Walking Dead S05E12


Fear the Walking Dead S05E12


Fear the Walking Dead S05E12


Fear the Walking Dead S05E12


Fear the Walking Dead S05E12

All episodes