Featured TV Shows


Fear the Walking Dead S05E16

Posted By: Tavaz
1080p (FullHD) / WEBRip IMDb
Fear the Walking Dead S05E16

Fear the Walking Dead S05E16
WEBRip | MKV | 1920x1080 | English | H264 @ 11209 kbps | E-AC-3 @ 640 kbps | 51 min 34 s | 4.27 GiB
Subtitles: English
Genre: Drama, Horror


What did the world look like as it was transforming into the horrifying apocalypse depicted in "The Walking Dead"? This spin-off set in Los Angeles, following new characters as they face the beginning of the end of the world, will answer that question.

db566f9bc11940d7a258bcb818c2a643.mkv (4.3 GB)



General
Unique ID : 20413243276833563194834664818756433043 (0xF5B72991E25292315F2262831263493)
Complete name : ./db566f9bc11940d7a258bcb818c2a643.mkv
Format : Matroska
Format version : Version 4 / Version 2
File size : 4.27 GiB
Duration : 51 min 34 s
Overall bit rate : 11.9 Mb/s
Encoded date : UTC 2019-09-30 07:03:50
Writing application : mkvmerge v33.1.0 ('Primrose') 64-bit
Writing library : libebml v1.3.7 + libmatroska v1.5.0

Video
ID : 1
Format : AVC
Format/Info : Advanced Video Codec
Format profile : High@L4
Format settings : CABAC / 4 Ref Frames
Format settings, CABAC : Yes
Format settings, RefFrames : 4 frames
Codec ID : V_MPEG4/ISO/AVC
Duration : 51 min 34 s
Bit rate : 11.2 Mb/s
Width : 1 920 pixels
Height : 1 080 pixels
Display aspect ratio : 16:9
Frame rate mode : Constant
Frame rate : 23.976 (24000/1001) FPS
Color space : YUV
Chroma subsampling : 4:2:0
Bit depth : 8 bits
Scan type : Progressive
Bits/(Pixel*Frame) : 0.225
Stream size : 4.04 GiB (95%)
Language : English
Default : Yes
Forced : No
Color range : Limited
Color primaries : BT.709
Transfer characteristics : BT.709
Matrix coefficients : BT.709

Audio
ID : 2
Format : E-AC-3
Format/Info : Enhanced Audio Coding 3
Format settings, Endianness : Big
Codec ID : A_EAC3
Duration : 51 min 34 s
Bit rate mode : Constant
Bit rate : 640 kb/s
Channel(s) : 6 channels
Channel positions : Front: L C R, Side: L R, LFE
Sampling rate : 48.0 kHz
Frame rate : 187.500 FPS (256 SPF)
Compression mode : Lossy
Stream size : 236 MiB (5%)
Language : English
Service kind : Complete Main
Default : Yes
Forced : No

Text
ID : 3
Format : UTF-8
Codec ID : S_TEXT/UTF8
Codec ID/Info : UTF-8 Plain Text
Duration : 51 min 18 s
Bit rate : 57 b/s
Count of elements : 989
Stream size : 21.6 KiB (0%)
Title : English
Language : English
Default : No
Forced : No





Fear the Walking Dead S05E16


Fear the Walking Dead S05E16


Fear the Walking Dead S05E16


Fear the Walking Dead S05E16


Fear the Walking Dead S05E16

All episodes