Featured TV Shows


Fear the Walking Dead S05E16

Posted By: Tavaz
720p (HD) / WEBRip IMDb
Fear the Walking Dead S05E16

Fear the Walking Dead S05E16
WEBRip | MKV | 1280x720 | English | H264 @ 3508 kbps | AAC @ 125 kbps | 52 min 0 s | 1.32 GiB
Genre: Drama, Horror


What did the world look like as it was transforming into the horrifying apocalypse depicted in "The Walking Dead"? This spin-off set in Los Angeles, following new characters as they face the beginning of the end of the world, will answer that question.

b8a02074cc934bdc9dfcb510b1f10421.mkv (1.3 GB)



General
Unique ID : 17922749100904904883908540756356212566 (0xD7BCBC146D0BEC7EF18E0C2017FA756)
Complete name : ./b8a02074cc934bdc9dfcb510b1f10421.mkv
Format : Matroska
Format version : Version 4 / Version 2
File size : 1.32 GiB
Duration : 52 min 0 s
Overall bit rate : 3 636 kb/s
Encoded date : UTC 2019-09-28 01:51:45
Writing application : mkvmerge v21.0.0 ('Tardigrades Will Inherit The Earth') 64-bit
Writing library : libebml v1.3.5 + libmatroska v1.4.8

Video
ID : 1
Format : AVC
Format/Info : Advanced Video Codec
Format profile : High@L4.1
Format settings : CABAC / 5 Ref Frames
Format settings, CABAC : Yes
Format settings, RefFrames : 5 frames
Codec ID : V_MPEG4/ISO/AVC
Duration : 52 min 0 s
Bit rate : 3 509 kb/s
Width : 1 280 pixels
Height : 720 pixels
Display aspect ratio : 16:9
Frame rate mode : Constant
Frame rate : 23.976 (24000/1001) FPS
Color space : YUV
Chroma subsampling : 4:2:0
Bit depth : 8 bits
Scan type : Progressive
Bits/(Pixel*Frame) : 0.159
Stream size : 1.27 GiB (96%)
Writing library : x264 core 157 r2935 545de2f
Encoding settings : cabac=1 / ref=5 / deblock=1:-3:-3 / analyse=0x3:0x113 / me=hex / subme=8 / psy=1 / psy_rd=1.00:0.15 / mixed_ref=1 / me_range=16 / chroma_me=1 / trellis=2 / 8x8dct=1 / cqm=0 / deadzone=21,11 / fast_pskip=1 / chroma_qp_offset=-3 / threads=22 / lookahead_threads=3 / sliced_threads=0 / nr=0 / decimate=1 / interlaced=0 / bluray_compat=0 / constrained_intra=0 / bframes=3 / b_pyramid=2 / b_adapt=2 / b_bias=0 / direct=3 / weightb=1 / open_gop=0 / weightp=2 / keyint=250 / keyint_min=23 / scenecut=40 / intra_refresh=0 / rc_lookahead=50 / rc=crf / mbtree=1 / crf=18.0 / qcomp=0.60 / qpmin=0 / qpmax=69 / qpstep=4 / ip_ratio=1.40 / aq=1:1.00
Language : English
Default : Yes
Forced : No
Color range : Limited
Matrix coefficients : BT.709

Audio
ID : 2
Format : AAC
Format/Info : Advanced Audio Codec
Format profile : LC
Codec ID : A_AAC-2
Duration : 52 min 0 s
Bit rate : 126 kb/s
Channel(s) : 2 channels
Channel positions : Front: L R
Sampling rate : 44.1 kHz
Frame rate : 43.066 FPS (1024 SPF)
Compression mode : Lossy
Delay relative to video : 21 ms
Stream size : 46.7 MiB (3%)
Language : English
Default : Yes
Forced : No





Fear the Walking Dead S05E16


Fear the Walking Dead S05E16


Fear the Walking Dead S05E16


Fear the Walking Dead S05E16


Fear the Walking Dead S05E16

All episodes