Index
# A B C D E F G H I J K L M N O P Q R S T U V W X Y Z
Tags
Language
Tags
May 2024
Su Mo Tu We Th Fr Sa
28 29 30 1 2 3 4
5 6 7 8 9 10 11
12 13 14 15 16 17 18
19 20 21 22 23 24 25
26 27 28 29 30 31 1

Featured TV Shows


Filthy Rich S01E02

Posted By: Tavaz
1080p (FullHD) / WEB-DL IMDb
Filthy Rich S01E02

Filthy Rich S01E02
WEB-DL | MKV | 1920x1080 | English | H264 @ 5011 kbps | E-AC-3 @ 256 kbps | 41 min 51 s | 1.54 GiB
Subtitles: English
Genre: Drama


When the patriarch of a mega-rich Southern family, famed for creating a wildly successful Christian television network, dies in a plane crash, his wife and family are stunned to learn that he fathered three illegitimate children, all of whom are written into his will, threatening their family name and fortune.

dd1ebdd6d45a4a649185bb3683a0d830.mkv (1.5 GB)



General
Unique ID : 46873744216368738230683277927620128799 (0x23438E04B2ADD4C1E8C2DB3B0BC1B01F)
Complete name : ./dd1ebdd6d45a4a649185bb3683a0d830.mkv
Format : Matroska
Format version : Version 4 / Version 2
File size : 1.54 GiB
Duration : 41 min 51 s
Overall bit rate : 5 269 kb/s
Writing application : mkvmerge v45.0.0 ('Heaven in Pennies') 64-bit
Writing library : libebml v1.3.10 + libmatroska v1.5.2

Video
ID : 1
Format : AVC
Format/Info : Advanced Video Codec
Format profile : High@L4
Format settings : CABAC / 4 Ref Frames
Format settings, CABAC : Yes
Format settings, RefFrames : 4 frames
Codec ID : V_MPEG4/ISO/AVC
Duration : 41 min 51 s
Bit rate : 5 011 kb/s
Width : 1 920 pixels
Height : 1 080 pixels
Display aspect ratio : 16:9
Frame rate mode : Constant
Frame rate : 23.976 (24000/1001) FPS
Color space : YUV
Chroma subsampling : 4:2:0
Bit depth : 8 bits
Scan type : Progressive
Bits/(Pixel*Frame) : 0.101
Stream size : 1.47 GiB (95%)
Default : Yes
Forced : No

Audio
ID : 2
Format : E-AC-3
Format/Info : Enhanced Audio Coding 3
Format settings, Endianness : Big
Codec ID : A_EAC3
Duration : 41 min 51 s
Bit rate mode : Constant
Bit rate : 256 kb/s
Channel(s) : 6 channels
Channel positions : Front: L C R, Side: L R, LFE
Sampling rate : 48.0 kHz
Frame rate : 187.500 FPS (256 SPF)
Compression mode : Lossy
Stream size : 76.6 MiB (5%)
Language : English
Service kind : Complete Main
Default : Yes
Forced : No

Text
ID : 3
Format : UTF-8
Codec ID : S_TEXT/UTF8
Codec ID/Info : UTF-8 Plain Text
Duration : 41 min 48 s
Bit rate : 97 b/s
Count of elements : 1026
Stream size : 29.8 KiB (0%)
Title : SDH
Language : English
Default : No
Forced : No

Menu
00:10:06.010 : en:Chapter 01
00:18:28.001 : en:Chapter 02
00:25:16.019 : en:Chapter 03
00:30:59.005 : en:Chapter 04
00:36:26.009 : en:Chapter 05
00:41:17.008 : en:Credits





Filthy Rich S01E02


Filthy Rich S01E02


Filthy Rich S01E02


Filthy Rich S01E02


Filthy Rich S01E02

All episodes