Featured TV Shows


Finding Your Roots S04E10

Posted By: Tavaz
720p (HD) / WEB-DL IMDb
Finding Your Roots S04E10

Finding Your Roots S04E10
WEB-DL | MKV | 1280x720 | English | H264 @ 3000 kbps | AAC @ 93 kbps | 52 min 11 s | 1.13 GiB
Subtitles: English
Genre: Documentary

Noted Harvard scholar Henry Louis Gates, Jr. has been helping people discover long-lost relatives hidden for generations within the branches of their family trees. Professor Gates utilizes a team of genealogists to reconstruct the paper trail left behind by our ancestors and the world’s leading geneticists to decode our DNA and help us travel thousands of years into the past to discover the origins of our earliest forebears.

Finding.Your.Roots.S04E10.Funny.Business.720p.PBS.WEB-DL.AAC2.0.H.264-BTN.mkv (1.1 GB)



General
Unique ID : 3164661053811375098078261578163759841 (0x2617DD623566740AB82C6F521AB2AE1)
Complete name : ./Finding.Your.Roots.S04E10.Funny.Business.720p.PBS.WEB-DL.AAC2.0.H.264-BTN.mkv
Format : Matroska
Format version : Version 4 / Version 2
File size : 1.13 GiB
Duration : 52 min 11 s
Overall bit rate : 3 094 kb/s
Encoded date : UTC 2017-12-28 03:50:18
Writing application : mkvmerge v7.4.0 ('Circles') 64bit
Writing library : libebml v1.3.0 + libmatroska v1.4.1

Video
ID : 1
Format : AVC
Format/Info : Advanced Video Codec
Format profile : High@L3.1
Format settings : CABAC / 3 Ref Frames
Format settings, CABAC : Yes
Format settings, RefFrames : 3 frames
Format settings, GOP : M=4, N=60
Codec ID : V_MPEG4/ISO/AVC
Duration : 52 min 11 s
Bit rate mode : Constant
Bit rate : 3 000 kb/s
Width : 1 280 pixels
Height : 720 pixels
Display aspect ratio : 16:9
Frame rate mode : Constant
Frame rate : 29.970 (30000/1001) FPS
Color space : YUV
Chroma subsampling : 4:2:0
Bit depth : 8 bits
Scan type : Progressive
Bits/(Pixel*Frame) : 0.109
Stream size : 1.09 GiB (97%)
Default : Yes
Forced : No

Audio
ID : 2
Format : AAC
Format/Info : Advanced Audio Codec
Format profile : LC
Codec ID : A_AAC-2
Duration : 52 min 11 s
Bit rate : 93.4 kb/s
Channel(s) : 2 channels
Channel positions : Front: L R
Sampling rate : 48.0 kHz
Frame rate : 46.875 FPS (1024 SPF)
Compression mode : Lossy
Stream size : 34.9 MiB (3%)
Language : English
Default : Yes
Forced : No

Text
ID : 3
Format : UTF-8
Codec ID : S_TEXT/UTF8
Codec ID/Info : UTF-8 Plain Text
Duration : 52 min 4 s
Bit rate : 200 b/s
Count of elements : 1140
Stream size : 76.7 KiB (0%)
Language : English
Default : No
Forced : No





Finding Your Roots S04E10


Finding Your Roots S04E10


Finding Your Roots S04E10


Finding Your Roots S04E10


Finding Your Roots S04E10

All episodes