Featured TV Shows


Finding Your Roots S05E02

Posted By: Tavaz
1080p (FullHD) / WEBRip IMDb
Finding Your Roots S05E02

Finding Your Roots S05E02
WEBRip | MKV | 1920x1080 | English | H264 @ 5681 kbps | AAC @ 93 kbps | 52 min 41 s | 2.13 GiB
Genre: Documentary

Noted Harvard scholar Henry Louis Gates, Jr. has been helping people discover long-lost relatives hidden for generations within the branches of their family trees. Professor Gates utilizes a team of genealogists to reconstruct the paper trail left behind by our ancestors and the world’s leading geneticists to decode our DNA and help us travel thousands of years into the past to discover the origins of our earliest forebears.

1927aeee43ae4289908f973cb2689a01.mkv (2.1 GB)



General
Unique ID : 85875789322514041482876676090644394144 (0x409B134E6CA7EB164F67676299D7F0A0)
Complete name : ./1927aeee43ae4289908f973cb2689a01.mkv
Format : Matroska
Format version : Version 4 / Version 2
File size : 2.13 GiB
Duration : 52 min 41 s
Overall bit rate : 5 777 kb/s
Encoded date : UTC 2019-01-22 12:41:03
Writing application : mkvmerge v27.0.0 ('Metropolis') 64-bit
Writing library : libebml v1.3.6 + libmatroska v1.4.9

Video
ID : 1
Format : AVC
Format/Info : Advanced Video Codec
Format profile : High@L4.1
Format settings : CABAC / 4 Ref Frames
Format settings, CABAC : Yes
Format settings, RefFrames : 4 frames
Codec ID : V_MPEG4/ISO/AVC
Duration : 52 min 41 s
Bit rate : 5 681 kb/s
Width : 1 920 pixels
Height : 1 080 pixels
Display aspect ratio : 16:9
Frame rate mode : Constant
Frame rate : 23.976 (24000/1001) FPS
Color space : YUV
Chroma subsampling : 4:2:0
Bit depth : 8 bits
Scan type : Progressive
Bits/(Pixel*Frame) : 0.114
Stream size : 2.09 GiB (98%)
Writing library : x264 core 157 r2935 545de2f
Encoding settings : cabac=1 / ref=4 / deblock=1:-3:-3 / analyse=0x3:0x113 / me=umh / subme=8 / psy=1 / psy_rd=1.00:0.00 / mixed_ref=1 / me_range=16 / chroma_me=1 / trellis=2 / 8x8dct=1 / cqm=0 / deadzone=21,11 / fast_pskip=0 / chroma_qp_offset=-2 / threads=18 / lookahead_threads=3 / sliced_threads=0 / nr=0 / decimate=1 / interlaced=0 / bluray_compat=0 / constrained_intra=0 / bframes=3 / b_pyramid=2 / b_adapt=1 / b_bias=0 / direct=3 / weightb=1 / open_gop=0 / weightp=2 / keyint=250 / keyint_min=23 / scenecut=40 / intra_refresh=0 / rc_lookahead=50 / rc=crf / mbtree=1 / crf=17.0 / qcomp=0.60 / qpmin=0 / qpmax=69 / qpstep=4 / ip_ratio=1.40 / aq=1:0.80
Language : English
Default : Yes
Forced : No
Color range : Limited
Matrix coefficients : BT.709

Audio
ID : 2
Format : AAC
Format/Info : Advanced Audio Codec
Format profile : LC
Codec ID : A_AAC-2
Duration : 52 min 41 s
Bit rate : 93.4 kb/s
Channel(s) : 2 channels
Channel positions : Front: L R
Sampling rate : 48.0 kHz
Frame rate : 46.875 FPS (1024 SPF)
Compression mode : Lossy
Stream size : 35.2 MiB (2%)
Language : English
Default : Yes
Forced : No





Finding Your Roots S05E02


Finding Your Roots S05E02


Finding Your Roots S05E02


Finding Your Roots S05E02


Finding Your Roots S05E02

All episodes