Featured TV Shows


Flight HS13 S01E03

Posted By: Tavaz
1080p (FullHD) / WEB-DL IMDb
Flight HS13 S01E03

Flight HS13 S01E03
WEB-DL | MKV | 1920x1080 | Dutch | H264 @ 6990 kbps | E-AC-3 @ 224 kbps | 42 min 42 s | 2.15 GiB
Subtitles: English
Genre: Drama


Mourning the death of her husband Simon, supposedly killed in a plane crash, Liv is shocked to discover that Simon lied to her and was not a passenger on the tragic flight. Seeking the truth surrounding her husband’s mysterious disappearance, Liv uncovers secrets that threaten to destroy her entire family…

d75b843fe1a54905bf1d6eb801aec9d7.mkv (2.2 GB)



General
Unique ID : 219061692208424560203923412245633775734 (0xA4CDBF4D095B7003FAF01C2E648B3876)
Complete name : ./d75b843fe1a54905bf1d6eb801aec9d7.mkv
Format : Matroska
Format version : Version 4 / Version 2
File size : 2.15 GiB
Duration : 42 min 42 s
Overall bit rate : 7 216 kb/s
Encoded date : UTC 2019-12-20 13:09:51
Writing application : mkvmerge v19.0.0 ('Brave Captain') 64-bit
Writing library : libebml v1.3.5 + libmatroska v1.4.8

Video
ID : 1
Format : AVC
Format/Info : Advanced Video Codec
Format profile : High@L4
Format settings : CABAC / 4 Ref Frames
Format settings, CABAC : Yes
Format settings, RefFrames : 4 frames
Codec ID : V_MPEG4/ISO/AVC
Duration : 42 min 42 s
Bit rate mode : Constant
Bit rate : 6 990 kb/s
Nominal bit rate : 10 000 kb/s
Width : 1 920 pixels
Height : 1 080 pixels
Display aspect ratio : 16:9
Frame rate mode : Constant
Frame rate : 25.000 FPS
Color space : YUV
Chroma subsampling : 4:2:0
Bit depth : 8 bits
Scan type : Progressive
Bits/(Pixel*Frame) : 0.135
Stream size : 2.09 GiB (97%)
Default : Yes
Forced : No
Color range : Limited
Color primaries : BT.709
Transfer characteristics : BT.709
Matrix coefficients : BT.709

Audio
ID : 2
Format : E-AC-3
Format/Info : Enhanced Audio Coding 3
Format settings, Endianness : Big
Codec ID : A_EAC3
Duration : 42 min 42 s
Bit rate mode : Constant
Bit rate : 224 kb/s
Channel(s) : 2 channels
Channel positions : Front: L R
Sampling rate : 48.0 kHz
Frame rate : 187.500 FPS (256 SPF)
Compression mode : Lossy
Stream size : 68.4 MiB (3%)
Language : Dutch
Service kind : Complete Main
Default : Yes
Forced : No

Text
ID : 3
Format : UTF-8
Codec ID : S_TEXT/UTF8
Codec ID/Info : UTF-8 Plain Text
Duration : 42 min 32 s
Bit rate : 40 b/s
Count of elements : 411
Stream size : 12.6 KiB (0%)
Language : English
Default : No
Forced : No





Flight HS13 S01E03


Flight HS13 S01E03


Flight HS13 S01E03


Flight HS13 S01E03


Flight HS13 S01E03

All episodes