Featured TV Shows


Flight HS13 S01E07

Posted By: Tavaz
1080p (FullHD) / WEB-DL IMDb
Flight HS13 S01E07

Flight HS13 S01E07
WEB-DL | MKV | 1920x1080 | Dutch | H264 @ 7093 kbps | E-AC-3 @ 224 kbps | 42 min 37 s | 2.18 GiB
Subtitles: English
Genre: Drama


Mourning the death of her husband Simon, supposedly killed in a plane crash, Liv is shocked to discover that Simon lied to her and was not a passenger on the tragic flight. Seeking the truth surrounding her husband’s mysterious disappearance, Liv uncovers secrets that threaten to destroy her entire family…

dd12a2e286f645f5b156844ad113156c.mkv (2.2 GB)



General
Unique ID : 333751816690351742639544268194270800468 (0xFB164303BC72F5CBBFD649C72369EA54)
Complete name : ./dd12a2e286f645f5b156844ad113156c.mkv
Format : Matroska
Format version : Version 4 / Version 2
File size : 2.18 GiB
Duration : 42 min 37 s
Overall bit rate : 7 319 kb/s
Encoded date : UTC 2019-12-20 13:19:03
Writing application : mkvmerge v19.0.0 ('Brave Captain') 64-bit
Writing library : libebml v1.3.5 + libmatroska v1.4.8

Video
ID : 1
Format : AVC
Format/Info : Advanced Video Codec
Format profile : High@L4
Format settings : CABAC / 4 Ref Frames
Format settings, CABAC : Yes
Format settings, RefFrames : 4 frames
Codec ID : V_MPEG4/ISO/AVC
Duration : 42 min 37 s
Bit rate mode : Constant
Bit rate : 7 093 kb/s
Nominal bit rate : 10 000 kb/s
Width : 1 920 pixels
Height : 1 080 pixels
Display aspect ratio : 16:9
Frame rate mode : Constant
Frame rate : 25.000 FPS
Color space : YUV
Chroma subsampling : 4:2:0
Bit depth : 8 bits
Scan type : Progressive
Bits/(Pixel*Frame) : 0.137
Stream size : 2.11 GiB (97%)
Default : Yes
Forced : No
Color range : Limited
Color primaries : BT.709
Transfer characteristics : BT.709
Matrix coefficients : BT.709

Audio
ID : 2
Format : E-AC-3
Format/Info : Enhanced Audio Coding 3
Format settings, Endianness : Big
Codec ID : A_EAC3
Duration : 42 min 37 s
Bit rate mode : Constant
Bit rate : 224 kb/s
Channel(s) : 2 channels
Channel positions : Front: L R
Sampling rate : 48.0 kHz
Frame rate : 187.500 FPS (256 SPF)
Compression mode : Lossy
Stream size : 68.3 MiB (3%)
Language : Dutch
Service kind : Complete Main
Default : Yes
Forced : No

Text
ID : 3
Format : UTF-8
Codec ID : S_TEXT/UTF8
Codec ID/Info : UTF-8 Plain Text
Duration : 42 min 26 s
Bit rate : 42 b/s
Count of elements : 418
Stream size : 13.2 KiB (0%)
Language : English
Default : No
Forced : No





Flight HS13 S01E07


Flight HS13 S01E07


Flight HS13 S01E07


Flight HS13 S01E07


Flight HS13 S01E07

All episodes