Featured TV Shows


For All Mankind S01E04

Posted By: Tavaz
720p (HD) / WEB-DL IMDb
For All Mankind S01E04

For All Mankind S01E04
WEB-DL | MKV | 1358x678 | English | H264 @ 3872 kbps | AC-3 @ 384 kbps | 1 h 1 min | 1.84 GiB
Subtitles: German, Portuguese, Spanish, English
Genre: Drama


Explore an aspirational world where NASA and the space program remained a priority and a focal point of our hopes and dreams as told through the lives of NASA astronauts, engineers, and their families.

6ac19016ca7d4448a9468ec800301fb4.mkv (1.8 GB)



General
Unique ID : 137752258736842030537376098207479960205 (0x67A21EB85FC8262D0A23CF10FB05128D)
Complete name : ./6ac19016ca7d4448a9468ec800301fb4.mkv
Format : Matroska
Format version : Version 4 / Version 2
File size : 1.84 GiB
Duration : 1 h 1 min
Overall bit rate : 4 259 kb/s
Encoded date : UTC 2019-11-08 09:59:59
Writing application : mkvmerge v25.0.0 ('Prog Noir') 32-bit
Writing library : libebml v1.3.6 + libmatroska v1.4.9

Video
ID : 1
Format : AVC
Format/Info : Advanced Video Codec
Format profile : High@L3.2
Format settings : CABAC / 5 Ref Frames
Format settings, CABAC : Yes
Format settings, RefFrames : 5 frames
Codec ID : V_MPEG4/ISO/AVC
Duration : 1 h 1 min
Bit rate : 3 872 kb/s
Width : 1 358 pixels
Height : 678 pixels
Display aspect ratio : 2.003
Frame rate mode : Constant
Frame rate : 23.976 (24000/1001) FPS
Color space : YUV
Chroma subsampling : 4:2:0
Bit depth : 8 bits
Scan type : Progressive
Bits/(Pixel*Frame) : 0.175
Stream size : 1.67 GiB (91%)
Language : English
Default : Yes
Forced : No
Color range : Limited
Color primaries : BT.709
Transfer characteristics : BT.709
Matrix coefficients : BT.709

Audio
ID : 2
Format : AC-3
Format/Info : Audio Coding 3
Format settings, Endianness : Big
Codec ID : A_AC3
Duration : 1 h 1 min
Bit rate mode : Constant
Bit rate : 384 kb/s
Channel(s) : 6 channels
Channel positions : Front: L C R, Side: L R, LFE
Sampling rate : 48.0 kHz
Frame rate : 31.250 FPS (1536 SPF)
Bit depth : 16 bits
Compression mode : Lossy
Stream size : 170 MiB (9%)
Language : English
Service kind : Complete Main
Default : Yes
Forced : No

Text #1
ID : 3
Format : UTF-8
Codec ID : S_TEXT/UTF8
Codec ID/Info : UTF-8 Plain Text
Duration : 1 h 0 min
Bit rate : 62 b/s
Count of elements : 691
Stream size : 27.5 KiB (0%)
Title : Deutsch
Language : German
Default : No
Forced : No

Text #2
ID : 4
Format : UTF-8
Codec ID : S_TEXT/UTF8
Codec ID/Info : UTF-8 Plain Text
Duration : 58 min 19 s
Bit rate : 57 b/s
Count of elements : 711
Stream size : 24.8 KiB (0%)
Title : English
Language : English
Default : No
Forced : No

Text #3
ID : 5
Format : UTF-8
Codec ID : S_TEXT/UTF8
Codec ID/Info : UTF-8 Plain Text
Duration : 58 min 24 s
Bit rate : 62 b/s
Count of elements : 804
Stream size : 26.9 KiB (0%)
Title : English SDH
Language : English
Default : No
Forced : No

Text #4
ID : 6
Format : UTF-8
Codec ID : S_TEXT/UTF8
Codec ID/Info : UTF-8 Plain Text
Duration : 1 h 0 min
Bit rate : 55 b/s
Count of elements : 679
Stream size : 24.7 KiB (0%)
Title : Español
Language : Spanish
Default : No
Forced : No

Text #5
ID : 7
Format : UTF-8
Codec ID : S_TEXT/UTF8
Codec ID/Info : UTF-8 Plain Text
Duration : 1 h 0 min
Bit rate : 56 b/s
Count of elements : 729
Stream size : 24.8 KiB (0%)
Title : Português (Brasil)
Language : Portuguese
Default : No
Forced : No

Text #6
ID : 8
Format : UTF-8
Codec ID : S_TEXT/UTF8
Codec ID/Info : UTF-8 Plain Text
Duration : 1 h 0 min
Bit rate : 58 b/s
Count of elements : 730
Stream size : 25.8 KiB (0%)
Title : Português
Language : Portuguese
Default : No
Forced : No





For All Mankind S01E04


For All Mankind S01E04


For All Mankind S01E04


For All Mankind S01E04


For All Mankind S01E04

All episodes