Featured TV Shows


Frankie Drake Mysteries S03E10

Posted By: Tavaz
1080p (FullHD) / WEBRip IMDb
Frankie Drake Mysteries S03E10

Frankie Drake Mysteries S03E10
WEBRip | MKV | 1920x1080 | English | H264 @ 5875 kbps | AC-3 @ 384 kbps | 43 min 45 s | 1.91 GiB
Genre: Drama


Toronto’s only female private detective in the 1920s takes on the cases the police don’t want or can’t handle. From airplanes and booze running to American G-men, Communists and union busters, Frankie’s fearless sense of adventure gets her into all kinds of trouble, but she always manages to find her way out.

54186de3ab0c4b4097c2d15b71bb2412.mkv (1.9 GB)



General
Unique ID : 101952523801766368409106086087841667716 (0x4CB3578374083D0D7C535FDCF82DDA84)
Complete name : ./54186de3ab0c4b4097c2d15b71bb2412.mkv
Format : Matroska
Format version : Version 4 / Version 2
File size : 1.91 GiB
Duration : 43 min 45 s
Overall bit rate : 6 262 kb/s
Encoded date : UTC 2019-12-03 02:13:48
Writing application : mkvmerge v19.0.0 ('Brave Captain') 64-bit
Writing library : libebml v1.3.5 + libmatroska v1.4.8

Video
ID : 1
Format : AVC
Format/Info : Advanced Video Codec
Format profile : High@L4.1
Format settings : CABAC / 5 Ref Frames
Format settings, CABAC : Yes
Format settings, RefFrames : 5 frames
Codec ID : V_MPEG4/ISO/AVC
Duration : 43 min 45 s
Bit rate : 5 876 kb/s
Width : 1 920 pixels
Height : 1 080 pixels
Display aspect ratio : 16:9
Frame rate mode : Constant
Frame rate : 23.976 (24000/1001) FPS
Color space : YUV
Chroma subsampling : 4:2:0
Bit depth : 8 bits
Scan type : Progressive
Bits/(Pixel*Frame) : 0.118
Stream size : 1.80 GiB (94%)
Writing library : x264 core 157 r2969 d4099dd
Encoding settings : cabac=1 / ref=5 / deblock=1:-3:-3 / analyse=0x3:0x113 / me=hex / subme=8 / psy=1 / psy_rd=1.00:0.15 / mixed_ref=1 / me_range=16 / chroma_me=1 / trellis=2 / 8x8dct=1 / cqm=0 / deadzone=21,11 / fast_pskip=1 / chroma_qp_offset=-3 / threads=30 / lookahead_threads=5 / sliced_threads=0 / nr=0 / decimate=1 / interlaced=0 / bluray_compat=0 / constrained_intra=0 / bframes=3 / b_pyramid=2 / b_adapt=2 / b_bias=0 / direct=3 / weightb=1 / open_gop=0 / weightp=2 / keyint=250 / keyint_min=23 / scenecut=40 / intra_refresh=0 / rc_lookahead=50 / rc=crf / mbtree=1 / crf=18.0 / qcomp=0.60 / qpmin=0 / qpmax=69 / qpstep=4 / ip_ratio=1.40 / aq=1:1.00
Language : English
Default : Yes
Forced : No
Color range : Limited
Matrix coefficients : BT.709

Audio
ID : 2
Format : AC-3
Format/Info : Audio Coding 3
Format settings, Endianness : Big
Codec ID : A_AC3
Duration : 43 min 45 s
Bit rate mode : Constant
Bit rate : 384 kb/s
Channel(s) : 6 channels
Channel positions : Front: L C R, Side: L R, LFE
Sampling rate : 48.0 kHz
Frame rate : 31.250 FPS (1536 SPF)
Bit depth : 16 bits
Compression mode : Lossy
Stream size : 120 MiB (6%)
Language : English
Service kind : Complete Main
Default : Yes
Forced : No





Frankie Drake Mysteries S03E10


Frankie Drake Mysteries S03E10


Frankie Drake Mysteries S03E10


Frankie Drake Mysteries S03E10


Frankie Drake Mysteries S03E10

All episodes